<?xml version="1.0" standalone="no"?>
<!DOCTYPE svg PUBLIC "-//W3C//DTD SVG 1.1//EN" "http://www.w3.org/Graphics/SVG/1.1/DTD/svg11.dtd" >
<svg xmlns="http://www.w3.org/2000/svg">
<metadata>Generated by IcoMoon</metadata>
<defs>
<font id="icomoon" horiz-adv-x="1024">
<font-face units-per-em="1024" ascent="960" descent="-64" />
<missing-glyph horiz-adv-x="1024" />
<glyph unicode="&#x20;" horiz-adv-x="512" d="" />
<glyph unicode="&#xe900;" glyph-name="ic_account" d="M736.148 644.254c0-127.255-100.311-230.414-224.056-230.414-123.742 0-224.055 103.159-224.055 230.414s100.314 230.415 224.055 230.415c123.745 0 224.056-103.16 224.056-230.415zM704.404 284.017c71.24-14.423 117.75-37.96 137.682-75.919 14.971-29.624 14.971-64.896 0-94.52-19.932-37.96-64.599-63.012-138.424-75.919-32.896-6.636-66.191-10.947-99.661-12.908-31.007-3.415-62.013-3.415-93.387-3.415h-56.476c-11.812 1.521-23.255 2.278-34.328 2.278-33.469 1.72-66.775 5.908-99.662 12.524-71.24 13.67-117.749 37.96-137.682 75.919-7.695 14.705-11.751 31.135-11.812 47.831-0.16 16.799 3.773 33.372 11.443 48.21 19.564 37.96 66.073 62.633 138.051 75.919 33.032 6.482 66.452 10.67 100.031 12.524 61.426 4.951 123.134 4.951 184.559 0 33.449-1.946 66.744-6.134 99.666-12.524z" />
<glyph unicode="&#xe901;" d="M28.702 189.457v-19.449h59.791c45.702 0 82.882 37.181 82.882 82.883v19.449h-59.791c-45.702 0-82.882-37.181-82.882-82.883v0z" />
<glyph unicode="&#xe902;" d="M577.090 540.716h147.88v19.451c0 45.7-37.181 82.881-82.883 82.881h-147.878v-19.449c0-45.7 37.179-82.883 82.881-82.883z" />
<glyph unicode="&#xe903;" d="M88.494 431.265h-59.791v-19.449c0-45.702 37.18-82.883 82.882-82.883h59.791v19.449c0 45.702-37.18 82.883-82.882 82.883z" />
<glyph unicode="&#xe904;" d="M705.985 117.155c-31.466 55.732-47.921 118.294-47.921 183.484 0 65.187 16.455 127.751 47.921 183.484h-95.059c-137.594 0-267.898-59.889-357.5-164.311l-16.454-19.173 16.454-19.176c89.6-104.419 219.904-164.308 357.5-164.308h95.059z" />
<glyph unicode="&#xe905;" d="M577.090 60.557c-45.702 0-82.881-37.181-82.881-82.883v-19.449h147.878c45.702 0 82.883 37.181 82.883 82.883v19.449h-147.88z" />
<glyph unicode="&#xe906;" d="M920.537 387.755c-39.775 46.353-93.228 77.726-151.857 90.251-35.401-52.463-54.036-113.423-54.036-177.369s18.637-124.906 54.036-177.369c58.629 12.524 112.082 43.898 151.857 90.249l74.754 87.12-74.754 87.118z" />
<glyph unicode="&#xe907;" d="M960.563 591.979l41.36 41.36-41.357 41.357-41.36-41.36 41.357-41.357z" />
<glyph unicode="&#xe908;" d="M882.573 513.994l41.36 41.36-41.355 41.357-41.36-41.36 41.355-41.357z" />
<glyph unicode="&#xe909;" d="M882.573 669.969l41.36 41.36-41.355 41.358-41.36-41.36 41.355-41.357z" />
<glyph unicode="&#xe90a;" d="M0 803.435c0.195-21.131 9.792-40.751 26.399-53.917l11.331-8.982-11.331-8.982c-16.605-13.164-26.202-32.783-26.399-53.912 34.38 0.356 62.241 28.433 62.241 62.897s-27.861 62.54-62.241 62.896z" />
<glyph unicode="&#xe90b;" d="M169.613 647.368l-16.251-24.795c26.265-4.693 46.42 2.043 59.576 9.426-14.713 3.896-29.304 9.201-43.325 15.37z" />
<glyph unicode="&#xe90c;" d="M206.417 852.391c-16.437 7.503-34.232 9.551-53.066 6.136l16.265-24.815c14.014 6.167 28.6 11.469 43.304 15.365-2.011 1.134-4.178 2.253-6.503 3.314z" />
<glyph unicode="&#xe90d;" d="M357.417 785.269c-14.841 16.038-30.267 28.086-46.158 36.097-17.676-22.874-27.329-51.258-27.329-80.828 0-29.538 9.63-57.893 27.27-80.753 42.525 21.46 70.373 65.745 78.894 80.754-4.879 8.597-16.079 26.795-32.678 44.731z" />
<glyph unicode="&#xe90e;" d="M289.034 829.844c-8.541 2.242-17.196 3.379-25.951 3.379-31.339 0-70.071-11.592-109.063-32.64-32.668-17.636-57.488-37.441-69.359-50.755 0.33-3.052 0.504-6.151 0.504-9.289s-0.175-6.237-0.504-9.289c11.871-13.315 36.691-33.121 69.359-50.753 38.991-21.048 77.723-32.641 109.063-32.641 9.048 0 17.696 1.239 25.922 3.418-18.149 25.841-28.002 56.966-28.002 89.265 0 32.317 9.862 63.456 28.031 89.305z" />
<glyph unicode="&#xe90f;" d="M512 960c282.77 0 512-229.23 512-512s-229.23-512-512-512c-282.77 0-512 229.23-512 512s229.23 512 512 512z" />
<glyph unicode="&#xe910;" d="M810.667 686.507l-60.16 60.16-238.507-238.507-238.507 238.507-60.16-60.16 238.507-238.507-238.507-238.507 60.16-60.16 238.507 238.507 238.507-238.507 60.16 60.16-238.507 238.507 238.507 238.507z" />
<glyph unicode="&#xe911;" glyph-name="ic_dropdown" horiz-adv-x="1707" d="M1682.488 771.048c0 56.666-46.952 103.619-103.619 103.619h-1450.667c-56.667 0-103.619-46.952-103.619-103.619 0-27.525 11.333-53.429 30.762-72.858l725.334-725.333c19.429-19.429 45.332-30.763 72.858-30.763 27.523 0 53.427 11.334 72.856 30.763l725.333 725.333c19.429 19.429 30.763 45.332 30.763 72.858z" />
<glyph unicode="&#xe912;" d="M1020.828 293.185c-24.001 185.616-124.011 388.033-128.009 396.837-1.601 3.198-4.801 6.4-8.001 7.999l-15.199 6.4-4.801 17.603c0 1.601-0.801 2.402-1.601 4.001-0.801 1.6-11.201 21.601-40.003 32.803-26.401 10.401-92.807 33.604-132.81 33.604-13.601 0-24.802-2.401-32.002-8-5.602-2.401-29.603-24.001-52.806-24.001h-192.016c-22.402 0-47.204 20.802-52.803 24.001-8.001 5.601-18.402 8-32.005 8-40.001 0-106.41-23.203-132.81-33.604-28.802-11.201-39.202-31.203-40.003-32.803-0.801-0.801-0.801-2.402-1.601-4.001l-4.8-18.402-11.201-6.4c-3.2-1.601-5.601-4.001-7.202-7.201-4-8.802-104.009-211.219-128.010-396.837-8.8-69.606 0.8-120.811 29.602-153.612 28.003-31.202 64.807-36.003 80.008-36.003h12.002c20.802 0 50.404 16.002 148.015 120.811 9.6 10.401 16.801 16.002 21.602 20.801 14.401 14.401 44.004 19.202 65.606 19.202h305.624c21.604 0 52.005-4.801 65.606-19.202 4.801-4.799 12.002-10.401 21.602-20.801 97.608-104.809 127.213-120.811 148.015-120.811h12.002c14.401 0 52.005 4.001 80.007 36.003 27.197 32.801 36.799 84.806 27.997 153.612z" />
<glyph unicode="&#xe913;" d="M892.821 690.018c-1.601 3.2-4.801 6.402-8.001 8.001l-15.199 6.4-4.801 17.603c0 1.601-0.801 2.399-1.601 3.998-0.801 1.602-11.201 21.603-40.003 32.805-26.401 10.401-92.807 33.604-132.81 33.604-13.601 0-24.802-2.401-32.002-8-5.602-2.401-29.603-24.001-52.806-24.001h-192.016c-22.402 0-47.204 20.802-52.803 24.001-8.001 5.601-18.402 8-32.005 8-40.001 0-106.41-23.203-132.81-33.604-28.802-11.201-39.203-31.203-40.003-32.805-0.8-0.801-0.8-2.399-1.601-3.998l-4.8-18.402-11.201-6.4c-3.199-1.601-5.601-4.001-7.201-7.203-0.8-2.399-9.6-18.399-20.802-44.802l74.407 37.604c105.609 50.404 143.211 21.602 146.413 19.2 2.402-3.198 16.803-22.402 51.205-56.003 32.803-32.803 48.005-37.604 54.405-37.604h140.814c7.201 0 22.402 5.602 53.604 37.604 33.603 33.603 48.005 52.005 50.404 56.003 4.001 3.2 43.203 32.804 154.412-23.203-1.601 1.601 47.204-23.203 80.009-40.001-12.805 29.601-21.606 48.805-23.205 51.202z" />
<glyph unicode="&#xe914;" d="M756.008 520.404c-15.202 0-28.004-12.802-28.004-28.002 0-15.202 12.802-28.004 28.004-28.004s28.004 12.802 28.004 28.004c0 15.199-12.802 28.002-28.004 28.002zM820.015 584.411c-15.202 0-28.004-12.802-28.004-28.004 0-15.199 12.802-28.002 28.004-28.002 15.199 0 28.002 12.802 28.002 28.002 0 15.202-12.802 28.004-28.002 28.004zM692.001 584.411c-15.202 0-28.002-12.802-28.002-28.004 0-15.199 12.8-28.002 28.002-28.002s28.004 12.802 28.004 28.002c0 15.202-12.802 28.004-28.004 28.004zM756.008 648.415c-15.202 0-28.004-12.802-28.004-28.004s12.802-28.004 28.004-28.004c15.202 0 28.004 12.802 28.004 28.004-0.002 15.204-12.802 28.004-28.004 28.004z" />
<glyph unicode="&#xe915;" d="M511.986 712.422c17.603 0 32.005-14.399 32.005-32.002 0-17.601-14.401-32.002-32.005-32.002-17.601 0-32.002 14.401-32.002 32.002 0 17.603 14.401 32.002 32.002 32.002z" />
<glyph unicode="&#xe916;" d="M452.783 392.392h-28.802v-29.601c0-6.402-4.799-11.201-11.201-11.201h-25.6c-6.402 0-11.203 4.799-11.203 11.201v29.601h-28.8c-6.402 0-11.201 4.801-11.201 11.201v25.602c0 6.402 4.799 11.201 11.201 11.201h28.8v28.802c0 6.402 4.801 11.201 11.203 11.201h25.6c6.402 0 11.201-4.799 11.201-11.201v-28.802h28.802c6.402 0 11.201-4.799 11.201-11.201v-25.602c0-6.4-4.799-11.201-11.201-11.201z" />
<glyph unicode="&#xe917;" d="M607.995 496.403c44.004 0 80.007-36.003 80.007-80.007s-36.003-80.007-80.007-80.007c-44.004 0-80.007 36.003-80.007 80.007 0 44.002 36.003 80.007 80.007 80.007z" />
<glyph unicode="&#xe918;" d="M255.965 640.414c44.004 0 80.007-36.003 80.007-80.007s-36.003-80.007-80.007-80.007c-44.005 0-80.008 36.003-80.008 80.007s36.003 80.007 80.008 80.007z" />
<glyph unicode="&#xe919;" glyph-name="ic_history" d="M513.341 746.687c-165.728 0-300.041-134.313-300.041-300.039 0-165.724 134.313-300.037 300.041-300.037 165.724 0 300.037 134.313 300.037 300.037 0 165.726-134.313 300.039-300.037 300.039zM541.865 304.21c0-17.147-11.377-28.524-28.524-28.524-17.153 0-28.526 11.377-28.526 28.524h-28.524c-17.15 0-28.524 11.377-28.524 28.524 0 17.152 11.373 28.524 28.524 28.524h85.573c17.147 0 28.524 11.377 28.524 28.524 0 17.152-11.377 28.524-28.524 28.524h-57.050c-48.381 0-85.39 37.010-85.39 85.572 0 48.382 37.009 85.571 85.39 85.571 0 17.15 11.374 28.524 28.526 28.524 17.147 0 28.524-11.373 28.524-28.524h28.524c17.147 0 28.524-11.373 28.524-28.524s-11.377-28.524-28.524-28.524h-85.573c-17.15 0-28.524-11.373-28.524-28.524s11.374-28.524 28.524-28.524h57.050c48.379 0 85.571-37.009 85.571-85.572-0.184-48.563-37.192-85.571-85.571-85.571zM898.243 816.35v-122.579c0-9.929-7.946-17.872-17.874-17.872h-122.578c-15.165 0-27.622 12.456-27.622 27.621s12.457 27.621 27.622 27.621h46.756c-68.961 70.948-160.671 113.733-259.42 121.315-246.963 18.775-454.752-187.389-437.782-434.351 1.264-19.139 3.972-38.093 7.943-56.868 2.889-13.901-5.235-27.802-18.955-31.775-0.181 0-0.542-0.179-0.722-0.179-15.164-4.511-31.051 4.874-34.481 20.398-6.499 31.775-9.929 64.271-9.929 96.947 0 123.481 48.020 239.561 135.397 326.756 66.074 66.074 148.575 109.762 238.298 126.912 1.805 0.361 3.611 0.722 5.416 1.083 3.61 0.722 7.221 1.264 10.831 1.805 7.221 1.083 14.623 2.166 22.025 2.888 1.805 0.181 3.611 0.361 5.596 0.542 3.611 0.361 7.402 0.722 11.013 0.903 2.346 0.18 4.874 0.361 7.221 0.542 1.264 0 2.528 0.18 3.791 0.18 3.611 0.181 7.221 0.361 10.832 0.361 1.625 0 3.249 0 4.874 0 2.166 0 4.513 0 6.679 0 125.471 0 242.995-49.826 329.646-138.104v45.854c0 15.345 12.457 27.621 27.622 27.621 15.524 0 27.802-12.456 27.802-27.621zM125.75 78.003v122.578c0 9.933 7.944 17.874 17.872 17.874h122.579c15.164 0 27.621-12.457 27.621-27.622 0-15.16-12.456-27.617-27.621-27.617h-46.577c68.962-70.948 160.671-113.736 259.421-121.318 246.781-18.954 454.755 187.392 437.603 434.173-1.265 19.137-3.973 38.092-7.946 56.867-2.888 13.901 5.238 27.802 18.959 31.773 0.179 0 0.538 0.18 0.722 0.18 15.165 4.513 31.048-4.874 34.478-20.4 6.861-31.773 10.112-64.268 10.112-96.946 0-123.479-48.020-239.56-135.398-326.753-66.074-66.074-148.572-109.763-238.479-126.915-1.802-0.358-3.61-0.722-5.417-1.080-3.61-0.722-7.219-1.265-10.829-1.807-7.224-1.085-14.623-2.166-22.026-2.888-1.802-0.179-3.61-0.364-5.596-0.543-3.61-0.358-7.404-0.722-11.013-0.901-2.345-0.179-4.874-0.364-7.219-0.543-1.265 0-2.529-0.179-3.794-0.179-3.61-0.179-7.219-0.364-10.829-0.364-1.623 0-3.251 0-4.874 0-2.166 0-4.516 0-6.68 0-125.468 0-242.992 49.828-329.647 138.107v-45.676c0-15.345-12.456-27.622-27.621-27.622-15.345 0-27.802 12.278-27.802 27.622z" />
<glyph unicode="&#xe91a;" d="M220.712 300.172l-0.436-0.435c-1.865-1.864-4.391-2.918-7.029-2.93-2.637-0.009-5.173 1.022-7.053 2.87-17.062 16.794-40.084 26.142-64.025 25.998s-46.848-9.77-63.706-26.768c-16.858-16.998-26.294-39.985-26.239-63.926s9.593-46.885 26.528-63.807l135.070-135 134.876 136.027c8.404 8.404 15.069 18.381 19.617 29.361s6.886 22.747 6.886 34.632c0 11.883-2.341 23.652-6.889 34.63-4.55 10.98-11.215 20.957-19.619 29.359-8.404 8.404-18.381 15.069-29.361 19.617s-22.747 6.889-34.632 6.886c-11.883 0-23.65-2.341-34.63-6.889-10.98-4.55-20.956-11.215-29.359-19.619v-0.005z" />
<glyph unicode="&#xe91b;" d="M774.395 558.885c14.334 2.774 29.068 2.774 43.401 0l-21.699 52.052-21.702-52.052z" />
<glyph unicode="&#xe91c;" d="M789.111 644.061c0.468 0.465 0.982 0.882 1.534 1.245 0.154 0.102 0.319 0.177 0.475 0.27 0.314 0.184 0.64 0.349 0.973 0.498 0.314 0.144 0.64 0.27 0.968 0.377 0.112 0.035 0.223 0.061 0.335 0.091 1.036 0.321 2.115 0.472 3.2 0.451l0.922-0.037c2.46-0.098 4.797-1.101 6.563-2.816 17.147-16.584 40.152-25.726 64.007-25.437s46.629 9.986 63.369 26.982c16.742 16.996 26.096 39.915 26.024 63.772-0.070 23.856-9.558 46.719-26.401 63.615l-135.063 134.99-134.879-136.014c-16.97-16.97-26.508-39.988-26.508-63.99-0.002-24.001 9.53-47.018 26.501-63.991s39.99-26.508 63.991-26.51c24.001 0 47.018 9.533 63.991 26.503z" />
<glyph unicode="&#xe91d;" d="M796.086 17.462c81.659 0 147.859 66.171 147.859 147.796 0 81.627-66.199 147.796-147.859 147.796-81.662 0-147.861-66.169-147.861-147.796 0-81.624 66.199-147.796 147.861-147.796z" />
<glyph unicode="&#xe91e;" d="M155.614 619.883c12.273 0.014 24.411 2.565 35.651 7.491 11.24 4.929 21.341 12.127 29.666 21.146 0.936 1.017 2.074 1.827 3.34 2.383s2.634 0.842 4.016 0.842c1.382 0 2.75-0.286 4.016-0.842s2.404-1.366 3.34-2.383c9.337-10.149 20.911-17.983 33.801-22.882s26.745-6.728 40.467-5.343c13.719 1.385 26.929 5.946 38.582 13.324 11.65 7.377 21.425 17.366 28.544 29.177 7.121 11.809 11.392 25.116 12.479 38.863 1.085 13.747-1.047 27.559-6.228 40.339-5.178 12.781-13.263 24.18-23.613 33.293s-22.682 15.691-36.015 19.212c-2.36 0.621-4.413 2.085-5.769 4.114-1.354 2.030-1.922 4.485-1.594 6.904 1.701 12.556 0.696 25.33-2.949 37.465-3.642 12.135-9.842 23.35-18.178 32.892s-18.616 17.189-30.152 22.429c-11.536 5.24-24.059 7.951-36.731 7.951s-25.194-2.711-36.73-7.951c-11.536-5.24-21.817-12.888-30.154-22.429s-14.534-20.757-18.178-32.892c-3.644-12.135-4.649-24.909-2.948-37.465 0.329-2.419-0.238-4.874-1.595-6.904s-3.409-3.493-5.769-4.114c-20.857-5.505-38.996-18.415-51.028-36.319s-17.135-39.576-14.354-60.966c2.781-21.39 13.255-41.037 29.464-55.27 16.21-14.231 37.046-22.074 58.617-22.065z" />
<glyph unicode="&#xe91f;" d="M200.455 559.802c18.361 3.8 37.306 3.8 55.668 0l-27.834 53.399-27.834-53.399z" />
<glyph unicode="&#xe920;" d="M1002 457.998h-480v479.769c0 2.652-1.054 5.196-2.93 7.071-1.873 1.875-4.417 2.929-7.070 2.929s-5.197-1.054-7.070-2.929c-1.876-1.875-2.93-4.419-2.93-7.071v-479.769h-480c-2.652 0-5.196-1.052-7.071-2.928s-2.929-4.419-2.929-7.070c0-2.653 1.054-5.197 2.929-7.073s4.419-2.928 7.071-2.928h480v-479.77c0-2.651 1.054-5.194 2.93-7.070 1.873-1.876 4.417-2.928 7.070-2.928s5.197 1.052 7.070 2.928c1.876 1.876 2.93 4.419 2.93 7.070v479.77h480c2.651 0 5.194 1.052 7.070 2.928s2.93 4.419 2.93 7.073c0 2.651-1.054 5.194-2.93 7.070s-4.419 2.928-7.070 2.928z" />
<glyph unicode="&#xe921;" d="M304 112h64v-64h-64v64z" />
<glyph unicode="&#xe922;" d="M304 432h64v-64h-64v64z" />
<glyph unicode="&#xe923;" d="M304 592h64v-64h-64v64z" />
<glyph unicode="&#xe924;" d="M464 112h64v-64h-64v64z" />
<glyph unicode="&#xe925;" d="M464 272h64v-64h-64v64z" />
<glyph unicode="&#xe926;" d="M784 912h-736v-224h736v224z" />
<glyph unicode="&#xe927;" d="M144 592h64v-64h-64v64z" />
<glyph unicode="&#xe928;" d="M144 432h64v-64h-64v64z" />
<glyph unicode="&#xe929;" d="M144 272h64v-64h-64v64z" />
<glyph unicode="&#xe92a;" d="M624 112h64v-64h-64v64z" />
<glyph unicode="&#xe92b;" d="M752 80c0 23.585 12.961 43.999 32 55.105v81.806c-19.039 11.106-32 31.521-32 55.105s12.961 43.999 32 55.103v145.808c-19.039 11.106-32 31.521-32 55.105s12.961 43.999 32 55.103v72.865h-736v-672h736v40.895c-19.039 11.106-32 31.521-32 55.105zM240 32c0-8.832-7.152-16-16-16h-96c-8.848 0-16 7.168-16 16v96c0 8.832 7.152 16 16 16h96c8.848 0 16-7.168 16-16v-96zM240 192c0-8.832-7.152-16-16-16h-96c-8.848 0-16 7.168-16 16v96c0 8.832 7.152 16 16 16h96c8.848 0 16-7.168 16-16v-96zM240 352c0-8.832-7.152-16-16-16h-96c-8.848 0-16 7.168-16 16v96c0 8.832 7.152 16 16 16h96c8.848 0 16-7.168 16-16v-96zM240 512c0-8.832-7.152-16-16-16h-96c-8.848 0-16 7.168-16 16v96c0 8.832 7.152 16 16 16h96c8.848 0 16-7.168 16-16v-96zM400 32c0-8.832-7.152-16-16-16h-96c-8.848 0-16 7.168-16 16v96c0 8.832 7.152 16 16 16h96c8.848 0 16-7.168 16-16v-96zM400 192c0-8.832-7.152-16-16-16h-96c-8.848 0-16 7.168-16 16v96c0 8.832 7.152 16 16 16h96c8.848 0 16-7.168 16-16v-96zM400 352c0-8.832-7.152-16-16-16h-96c-8.848 0-16 7.168-16 16v96c0 8.832 7.152 16 16 16h96c8.848 0 16-7.168 16-16v-96zM400 512c0-8.832-7.152-16-16-16h-96c-8.848 0-16 7.168-16 16v96c0 8.832 7.152 16 16 16h96c8.848 0 16-7.168 16-16v-96zM560 32c0-8.832-7.152-16-16-16h-96c-8.848 0-16 7.168-16 16v96c0 8.832 7.152 16 16 16h96c8.848 0 16-7.168 16-16v-96zM560 192c0-8.832-7.152-16-16-16h-96c-8.848 0-16 7.168-16 16v96c0 8.832 7.152 16 16 16h96c8.848 0 16-7.168 16-16v-96zM560 352c0-8.832-7.152-16-16-16h-96c-8.848 0-16 7.168-16 16v96c0 8.832 7.152 16 16 16h96c8.848 0 16-7.168 16-16v-96zM560 512c0-8.832-7.152-16-16-16h-96c-8.848 0-16 7.168-16 16v96c0 8.832 7.152 16 16 16h96c8.848 0 16-7.168 16-16v-96zM720 32c0-8.832-7.152-16-16-16h-96c-8.848 0-16 7.168-16 16v96c0 8.832 7.152 16 16 16h96c8.848 0 16-7.168 16-16v-96zM720 192c0-8.832-7.152-16-16-16h-96c-8.848 0-16 7.168-16 16v96c0 8.832 7.152 16 16 16h96c8.848 0 16-7.168 16-16v-96zM720 352c0-8.832-7.152-16-16-16h-96c-8.848 0-16 7.168-16 16v96c0 8.832 7.152 16 16 16h96c8.848 0 16-7.168 16-16v-96zM720 512c0-8.832-7.152-16-16-16h-96c-8.848 0-16 7.168-16 16v96c0 8.832 7.152 16 16 16h96c8.848 0 16-7.168 16-16v-96z" />
<glyph unicode="&#xe92c;" d="M624 272h64v-64h-64v64z" />
<glyph unicode="&#xe92d;" d="M624 432h64v-64h-64v64z" />
<glyph unicode="&#xe92e;" d="M816 496c17.673 0 32 14.327 32 32s-14.327 32-32 32c-17.673 0-32-14.327-32-32s14.327-32 32-32z" />
<glyph unicode="&#xe92f;" d="M816 48c17.673 0 32 14.327 32 32s-14.327 32-32 32c-17.673 0-32-14.327-32-32s14.327-32 32-32z" />
<glyph unicode="&#xe930;" d="M816 240c17.673 0 32 14.327 32 32s-14.327 32-32 32c-17.673 0-32-14.327-32-32s14.327-32 32-32z" />
<glyph unicode="&#xe931;" d="M464 592h64v-64h-64v64z" />
<glyph unicode="&#xe932;" d="M623.704 592.056h64v-64h-64v64z" />
<glyph unicode="&#xe933;" d="M465.455 431.944h64v-64h-64v64z" />
<glyph unicode="&#xe934;" d="M304.875 272.056h64v-64h-64v64z" />
<glyph unicode="&#xe935;" d="M144.058 111.944h64v-64h-64v64z" />
<glyph unicode="&#xe936;" d="M944 160c17.673 0 32 14.327 32 32s-14.327 32-32 32c-17.673 0-32-14.327-32-32s14.327-32 32-32z" />
<glyph unicode="&#xe937;" d="M912 368c17.673 0 32 14.327 32 32s-14.327 32-32 32c-17.673 0-32-14.327-32-32s14.327-32 32-32z" />
<glyph unicode="&#xe938;" d="M750.294 819.201c16.6 0 30.001 13.4 30.001 30s-13.401 30-30.001 30c-12.8 0-24.2-8-28.4-20h-23.198v-20h23.198c4.401-12 15.6-20 28.4-20z" />
<glyph unicode="&#xe939;" d="M483.893 839.201h15.799v20h-15.799c-5.601 0-10.002-4.4-10.002-10s4.601-10 10.002-10z" />
<glyph unicode="&#xe93a;" d="M417.489 560.798c2.8 35.8 21.8 68.201 51.601 88.2 20.6 14.002 43.8 24.002 68.198 29.6-25.998 44.201-31.199 76.401-31.399 78.001-0.799 5.4 3.001 10.6 8.399 11.4 5.4 0.8 10.601-3 11.402-8.4 0-0.4 7.199-42.999 45.399-96.201 34.199-47.4 100.799-112.998 225.2-159.8v129.2c0 108.8-88.2 197-197 197s-197-88.2-197-197v-27.799c0-15.4 2.6-30.6 8.001-45 2.4 0.401 4.799 0.601 7.199 0.799z" />
<glyph unicode="&#xe93b;" d="M419.094 500.602h8.001c5.601 0 10-4.401 10-10v-14.401c0.401-83 67.8-150.201 151-149.8 82.601 0.401 149.6 67.199 149.8 149.8v30.399c-97.4 46.2-153.199 103.201-183.999 146.2-1.799 2.6-3.6 5-5.2 7.6-24.4-4.599-47.799-14.2-68.399-28.2-27.201-18.2-43.202-48.8-43.202-81.599 0-5.601-4.399-10-10-10h-8.001c-10.999-0.2-19.999-9.2-19.799-20.202 0-10.799 9-19.598 19.799-19.799z" />
<glyph unicode="&#xe93c;" d="M599.292 849.8c31 0 61.6-6.6 89.8-19.6 0.198 2.4 0.398 5 0.398 7.6-0.2 49.8-40.8 90-90.6 89.8-49.399-0.2-89.6-40.4-89.8-89.8 0-2.6 0.2-5 0.401-7.6 28.2 13 58.8 19.6 89.8 19.6z" />
<glyph unicode="&#xe93d;" d="M641.687 156.202l26.8 87.2v83c-47.801-25.8-105-27.401-154.001-4v-78.999l26.6-87.401c32.401-12.201 68.201-12.201 100.601 0.2z" />
<glyph unicode="&#xe93e;" d="M815.494 233.599h-129.2l-81.401-265.601h317.6v158.6c0 59-47.999 106.801-106.999 107.001zM829.493 71.998h-102.002c-5.599 0-10 4.399-10 10s4.401 10 10 10h102.002c5.599 0 10-4.399 10-10s-4.401-10-10-10z" />
<glyph unicode="&#xe93f;" d="M634.488 132.799c-28.2-7.8-57.998-7.8-86.199 0l42.999-140.6 43.199 140.6z" />
<glyph unicode="&#xe940;" d="M261.895 62.001l3.8 19.999 11.8-16.4c-5.4 0-10.801-1.2-15.6-3.6z" />
<glyph unicode="&#xe941;" d="M423.486-32.002c4.201 4 6.801 10 6.801 16.4l-1.2 249.202h67.399l81.399-265.601h-154.399z" />
<glyph unicode="&#xe942;" d="M277.495 65.601c-5.4-0.2-10.601-1.4-15.6-3.6l3.8 19.999 11.8-16.4z" />
<glyph unicode="&#xe943;" d="M157.289 223l-1-21.001 11.2 2.6-10.2 18.401z" />
<glyph unicode="&#xe944;" d="M391.896 23.002l-59.401 253.999c-1.801 7.8-8.8 13.201-16.6 13.201-1.4 0-2.6-0.2-4-0.401l-180.4-42.2c-9.2-2.199-14.8-11.4-12.8-20.6l59.4-253.999c2.2-9.2 11.4-15.002 20.6-12.8l29.401 6.798c0.198 0 0.398 0.2 0.599 0.2l150.401 35.201c9.198 2.199 14.999 11.4 12.8 20.6zM178.495 189.402c-1.4-0.401-2.6-0.2-3.2 1l-4.4 8.001-14.8-3.401-0.4-9.2c0-1.2-1-1.999-2.4-2.4-2.2-0.599-5.6 0.2-6 2.199 0 0.2 0 0.401 0 0.601l3 43.4c0.2 2.001 2.4 3.6 4.8 4 2.4 0.601 5 0.2 6-1.601l22-37.599c0.2-0.2 0.2-0.401 0.2-0.601 0.2-1.601-2.4-3.8-4.8-4.399zM315.695 101.601c-9-14.401-26.199-21.6-42.799-17.599l14.398-20.2c1.002-1.601 0.801-3.602-0.799-4.802-0.799-0.599-1.601-0.799-2.6-0.599-8.201 1.2-16.6-0.601-23.601-5-0.398-0.2-0.799-0.601-1.2-0.801-1.598-1-3.6-0.799-4.799 0.801-0.599 0.799-0.799 1.799-0.599 2.6l4.599 24.4c-4.799-4.201-10.601-7.201-16.8-8.602-3.001-0.599-5.999-1-9.2-1-21.799 0-39.599 17.8-39.399 39.6 0 7.4 2 14.601 6 20.801l38.001 61.801c1 1.598 3.199 2.199 4.799 1.2l61.2-38.2c18.601-11.4 24.2-35.8 12.8-54.401z" />
<glyph unicode="&#xe945;" d="M310.094 105.601c-9.198-15.4-29.4-20.598-44.8-11.199-0.799 0.401-1.598 0.601-2.4 0.401h-0.398c-0.801-0.2-1.801-0.799-2.202-1.601-9.599-15.4-29.6-19.999-44.999-10.601-15.4 9.601-20 29.6-10.4 45l36.199 58.8 58.401-36.399c14.799-9.2 19.598-29.001 10.598-44.402z" />
<glyph unicode="&#xe946;" d="M369.896-32l-110.2-0.601 2.6 0.601h107.6z" />
<glyph unicode="&#xe947;" d="M421.888-10.2c0-11.999-9.599-21.6-21.6-21.8l-30.399-0.198h-107.6l118.399 27.799c6.2 1.4 11.6 5.2 14.801 10.799 3.399 5.4 4.399 12.001 2.999 18.2l-55.799 238.401h9.599l46.401 0.2c12.001 0 21.6-9.601 21.6-21.6v-8.201l1.601-243.601z" />
<glyph unicode="&#xe948;" d="M369.889-32l-74.601-0.401 1.601 0.401h73z" />
<glyph unicode="&#xe949;" d="M1024.002 478.797c0 196.922-159.642 356.573-356.573 356.573-63.821 0-123.571-16.986-175.393-46.344 152.504-51.373 262.782-195.466 262.782-365.059 0-119.608-54.733-226.637-140.488-297.386 17.364-2.595 35.014-4.399 53.099-4.399 196.931 0.040 356.573 159.683 356.573 356.615z" />
<glyph unicode="&#xe94a;" d="M356.573 773.781c-196.922 0-356.573-159.642-356.573-356.578 0-196.929 159.651-356.568 356.573-356.568 196.931 0 356.573 159.639 356.573 356.568 0 196.936-159.623 356.578-356.573 356.578z" />
<glyph unicode="&#xe94b;" d="M113.239 417.206c0 134.172 109.167 243.34 243.339 243.34s243.347-109.168 243.347-243.34c0-134.174-109.175-243.342-243.347-243.342s-243.339 109.163-243.339 243.342zM293.59 329.453c32.091 0 48.137 16.365 48.137 49.091v15.409c0 20.001-6.363 33.592-19.091 40.774 12.728 7 19.091 20.091 19.091 39.273v6.272c0 32.728-16.047 49.091-48.137 49.091-32 0-48-16.363-48-49.091v-6.272c0-19.363 6.319-32.454 18.956-39.273-12.637-7.182-18.956-20.773-18.956-40.774v-15.409c0-32.726 16-49.091 48-49.091zM293.59 357.274c-11.546 0-17.317 7.363-17.317 22.090v18.136c0 14.727 5.772 22.090 17.317 22.090s17.32-7.363 17.32-22.090v-18.136c-0.182-14.727-5.955-22.090-17.32-22.090zM293.59 447.546c-11.546 0-17.317 6.863-17.317 20.589v10.91c0 14.909 5.772 22.363 17.317 22.363s17.32-7.454 17.32-22.363v-10.91c0-13.726-5.774-20.589-17.32-20.589zM404.317 329.453c32.093 0 48.137 16.365 48.137 49.091v15.409c0 20.001-6.363 33.592-19.091 40.774 12.728 7 19.091 20.091 19.091 39.273v6.272c0 32.728-16.044 49.091-48.137 49.091-32 0-48-16.363-48-49.091v-6.272c0-19.363 6.319-32.454 18.956-39.273-12.637-7.182-18.956-20.773-18.956-40.774v-15.409c0-32.726 16-49.091 48-49.091zM404.317 357.274c-11.543 0-17.317 7.363-17.317 22.090v18.136c0 14.727 5.774 22.090 17.317 22.090 11.546 0 17.32-7.363 17.32-22.090v-18.136c-0.182-14.727-5.955-22.090-17.32-22.090zM404.317 447.546c-11.543 0-17.317 6.863-17.317 20.589v10.91c0 14.909 5.774 22.363 17.317 22.363 11.546 0 17.32-7.454 17.32-22.363v-10.91c0-13.726-5.774-20.589-17.32-20.589z" />
<glyph unicode="&#xe94c;" glyph-name="b52" d="M196.031 353.536c7.58 29.992 15.107 59.785 22.641 89.576 10.637 42.164 21.285 84.331 31.943 126.5 0.726 2.911 1.976 3.531 4.632 3.484 16.705-0.299 33.417-0.471 50.122-0.636 18.526-0.172 37.035-0.321 55.525-0.447 1.544 0 3.088-0.478 4.632-0.235 7.248 1.184 12.266-2.503 17.083-7.328 6.129-6.143 12.698-11.824 18.866-17.92 1.274-1.264 2.455-3.586 2.316-5.257-1.436-13.652-3.088-27.28-4.941-40.87-1.112-8.018-2.509-16.029-4.392-23.89-0.656-2.746-2.771-5.453-4.894-7.43-2.772-2.589-6.284-4.347-9.349-6.638-4.438-3.303-4.5-4.708-0.772-8.505 3.042-3.139 6.878-5.767 8.885-9.454 1.606-2.95 1.645-7.234 1.236-10.78-1.699-14.907-3.744-29.72-5.844-44.551-1.297-9.165-3.088-18.261-4.37-27.46-1.050-7.43-1.675-14.905-2.547-22.369-0.51-4.363-0.278-9.102-1.961-12.954s-4.972-7.219-8.175-10.086c-8.753-7.851-18.025-15.104-26.686-23.063-3.952-3.63-7.943-4.477-12.93-3.829-3.736 0.495-7.58 0.21-11.378 0.171-2.826 0-5.651-0.387-8.491-0.319-12.066 0.307-24.139 1.035-36.204 1.030-31.981 0-63.955-0.341-95.929-0.529-4.863 0-9.734 0-14.597 0-3.752 0-5.080 1.923-4.338 5.495 1.366 6.525 2.563 13.107 4.276 19.541 2.856 10.735 6.029 21.379 9.14 32.046 1.421 4.864 3.79 6.65 8.699 6.696 5.774 0.051 11.556 0.011 17.801 0.011zM325.902 427.287c-1.319 0.301-2.658 0.506-4.006 0.612-13.947 0.314-27.893 0.576-41.84 0.784-1.945 0-3.265-0.604-3.597-3.067-1.204-8.921-2.355-17.873-4.13-26.676-2.763-13.711-5.828-27.353-9.194-40.932-0.903-3.624 0.41-3.709 3.011-3.703 14.504 0 29.017 0.119 43.514-0.068 3.273 0 4.223 1.513 4.632 4.25 1.544 9.768 3.088 19.547 4.717 29.298 2.215 13 4.539 26.009 6.885 39.472l0.008 0.031zM290.655 484.209h43.552l9.109 39.293h-46.509c-2.038-13.032-4.053-25.86-6.16-39.324l0.008 0.031zM493.73 522.082v-46.856c0.772-0.055 1.845-0.196 2.949-0.196 14.135 0 28.277-0.086 42.419 0 6.546 0.055 13.123 0.18 19.622 0.832 6.855 0.683 12.025-2.071 16.928-6.52 8.613-7.846 17.579-15.245 26.123-23.13 1.542-1.412 2.469-4.276 2.469-6.465 0-16.328-0.432-32.655-0.455-48.977 0-21.294-0.182-42.593 0.501-63.863 0.273-8.402-3.243-13.966-8.658-19.268-3.021-2.958-5.569-6.406-8.545-9.415-5.103-5.166-10.223-9.324-18.528-9.239-32.638 0.319-65.275-0.171-97.913-0.296-7.557 0-15.307-0.825-22.587 0.683-4.47 0.916-8.29 5.404-12.228 8.522-2.154 1.707-3.636 4.449-5.959 5.734-4.941 2.736-7.612 7.39-9.943 11.986-1.543 2.992-1.59 7.066-1.405 10.57 0.448 8.277 1.421 16.526 2.208 24.775 0.926 9.671 1.544 19.376 2.933 28.979 0.849 6.007 2.385 6.684 8.306 6.61 8.344-0.102 16.689-0.102 25.034-0.125 7.927 0 15.848 0.119 23.768-0.074 5.766-0.142 6.338-0.887 6.284-6.593-0.070-6.639-0.278-13.278-0.34-19.905 0-1.786 0.27-3.567 0.432-5.604 16.056 0 31.85-0.040 47.644 0.119 0.811 0 2.316 1.69 2.316 2.6 0.146 14.12 0.208 28.245 0.046 42.366-0.077 6.222-0.71 12.443-1.104 18.94-0.504 0.147-1.022 0.241-1.544 0.282-15.809 0.283-31.65 0.165-47.405 0.981-6.685 0.337-11.494-1.898-15.894-6.457-2.18-2.389-4.605-4.536-7.233-6.402-1.274-0.848-3.96-1.232-4.995-0.447-9.734 7.375-19.298 15.009-28.778 22.706-0.539 0.481-0.977 1.068-1.286 1.727s-0.484 1.373-0.512 2.102c0.617 13.103 1.359 26.198 2.223 39.285 0.703 10.608 1.544 21.184 2.455 31.792s1.968 21.184 2.84 31.831c0.687 8.301 1.174 16.618 1.791 24.919 0.073 1.948 0.332 3.884 0.772 5.782 0.903 3.35 2.594 5.218 6.693 5.202 47.436-0.172 94.871-0.11 142.305-0.11 7.777 0 9.904-2.189 9.916-10.2 0-10.059 0-20.117 0-30.176 0-5.022-2.896-8.168-7.822-8.231-21.717-0.298-43.435-0.559-65.152-0.784-9.981-0.071-19.97 0.008-30.692 0.008zM742.093 474.943c-1.94 11.769-3.812 22.997-5.575 34.208-0.336 2.074-0.404 4.184-0.205 6.277 0.307 3.139-1.075 4.3-3.863 4.308h-38.411c0.575-5.422 1.223-9.878 1.451-14.35 0.21-4.151 0-8.325-0.097-12.491-0.080-3.217-1.764-4.598-4.949-4.543-10.894 0.18-21.794 0.322-32.694 0.291-3.686 0-7.378-0.604-11.076-0.864-10.297-0.729-11.816 2.574-12.931 11.95-1.32 11.094-2.059 22.267-3.049 33.401-0.523 5.939 0.336 10.937 5.575 15.111 7.868 6.277 14.928 13.558 22.602 20.094 2.116 1.797 4.745 2.863 7.498 3.044 28.012 0.471 56.030 0.732 84.036 0.784 3.55-0.064 6.997-1.191 9.916-3.24 8.943-6.512 17.653-13.401 26.038-20.643 2.873-2.5 4.989-5.783 6.087-9.462 3.021-11.345 5.495-22.848 7.782-34.373 3.271-16.547 6.076-33.196 9.33-49.751 1.178-5.963-2.77-9.415-5.53-13.385-4.511-6.434-9.444-12.554-14.359-18.689-4.358-5.422-10.672-5.68-16.799-5.712-15.804-0.094-31.647 0.063-47.423 0.11-6.229 0-12.447 0-19.183 0 2.634-20.933 5.228-41.584 7.885-62.718h4.471c34.958 0 69.922-0.051 104.88 0.040 6.178 0 6.946-0.546 8.903-6.844 2.566-8.169 3.959-16.72 5.689-25.105 1.542-7.674 3.004-15.388 4.329-23.12 0.404-2.304 0.489-4.659 0.256-6.986-0.336-3.14-2.975-3.726-5.404-3.766-13.995-0.233-27.989-0.381-41.995-0.449-19.297-0.068-38.537-0.108-57.793 0-8.346 0.063-16.68 0.626-25.020 0.905-6.912 0.233-13.824 0.421-20.736 0.558-6.884 0.137-13.778 0.262-20.662 0.233-4.631 0-9.21-0.273-13.813-0.563-2.594-0.165-3.857 1.206-4.181 3.499-0.654 5.137-1.109 10.314-1.604 15.479-0.99 10.2-1.991 20.4-2.913 30.549-0.643 7.111-1.070 14.251-1.746 21.356-1.178 12.51-2.52 24.997-3.709 37.498-0.882 9.18-1.633 18.367-2.441 27.555-0.267 3.099-0.262 6.277-0.87 9.29-1.047 5.171 0.29 8.937 4.306 12.554 7.196 6.448 14.040 13.298 20.491 20.517 5.592 6.277 12.732 6.575 19.928 6.677 16.981 0.235 33.963 0.047 50.898 0.11 2.236 0.106 4.466 0.327 6.679 0.659zM216.186 516.464l-141.72 40.885c-13.408 3.868-26.832 7.657-40.195 11.682-1.887 0.586-3.535 1.782-4.693 3.405-9.618 14.907-19.005 29.987-28.562 44.918-1.351 2.103-1.359 3.491 0 5.547 2.802 4.324 5.118 8.953 7.99 13.244 0.478 0.547 1.078 0.971 1.749 1.235s1.395 0.363 2.111 0.287c67.076-17.371 134.124-34.823 201.144-52.356 4.554-1.184 9.054-2.683 13.671-3.491 2.648-0.471 2.84-1.718 2.385-3.735-3.726-16.571-7.467-33.138-11.224-49.704-0.872-3.892-1.737-7.791-2.656-11.918zM811.133 519.618c-4.204 22.079-16.435 38.728-32.944 53.502l18.563 5.422c69.774 20.337 139.548 40.681 209.328 61.034 2.611 0.784 4.284 0.683 5.968-2.032 3.203-5.155 6.946-9.973 10.49-14.908 1.985-2.761 1.917-5.366 0-8.215-9.262-13.746-18.369-27.571-27.637-41.301-0.87-1.403-2.167-2.482-3.698-3.075-59.807-16.822-119.654-33.534-180.070-50.426zM41.272 546.427l171.27-46.879c-3.019-13.401-5.99-26.575-9.040-40.077-11.664 2.353-23.058 4.629-34.413 7.061-25.474 5.406-50.995 10.828-76.422 16.477-2.263 0.602-4.248 1.991-5.612 3.923-6.229 9.415-11.803 19.246-18.256 28.465-4.083 5.759-9.178 10.828-14.034 15.982-4.554 4.873-9.394 9.462-14.111 14.178l0.618 0.87zM980.082 546.114c-6.4-7.179-12.897-13.864-18.682-21.137-5.296-6.661-9.887-13.919-14.666-20.996-3.55-5.264-6.747-10.78-10.422-15.951-1.252-1.709-3.032-2.939-5.057-3.492-34.458-7.524-68.949-14.907-103.435-22.274-1.223-0.259-2.423-0.635-4.039-1.059-1.599 5.123-3.317 10.129-4.71 15.229-1.906 7.006-3.516 14.123-5.353 21.121-0.774 2.934-0.358 4.323 3.083 5.053 7.566 1.569 14.99 3.923 22.471 5.892 19.951 5.344 39.913 10.631 59.841 16.030 16.35 4.417 32.671 8.952 49.004 13.44 10.155 2.793 20.304 5.579 30.453 8.356 0.512 0.003 1.018-0.069 1.513-0.212zM872.829 408.017l10.962-16.892c-6.178-0.503-11.725-1.021-17.311-1.397-9.074-0.62-18.17-1.018-27.238-1.758-6.48-0.523-12.931-1.348-19.371-2.23-5.16-0.711-6.087-0.205-7.168 4.955-1.28 6.172-2.873 12.308-3.647 18.546-0.245 2.788 0.461 5.577 1.991 7.901 5.717 7.961 10.28 16.711 13.557 25.986 0.41 1.184 2.247 2.353 3.573 2.613 10.456 1.797 20.946 3.318 31.403 5.006 13.744 2.212 27.477 4.527 41.216 6.748 12.351 1.993 24.656 3.922 37.422 5.453-18.927-18.391-30.106-42.258-44.646-64.062l-20.287 9.799c-0.154-0.22-0.307-0.439-0.455-0.667zM137.433 391.8l12.282 17.19c-8.932-0.549-13.895-7.579-21.097-9.878l-43.182 64.509 114.91-18.995-13.022-58.357-49.89 5.53z" />
<glyph unicode="&#xe94d;" glyph-name="ic_mail" d="M890.435 826.435h-712.348c-48.974 0-89.043-40.070-89.043-89.043v-534.261c0-48.974 40.070-89.043 89.043-89.043h712.348c48.974 0 89.043 40.070 89.043 89.043v534.261c0 48.974-40.070 89.043-89.043 89.043zM890.435 203.13h-89.043v391.791l-267.13-169.183-267.13 169.183v-391.791h-89.043v534.261h53.426l302.748-186.991 302.748 186.991h53.426v-534.261z" />
<glyph unicode="&#xe94e;" d="M876.386 276.399c7.881 0.038 14.281-6.34 14.281-14.221 0-37.316 0-74.637 0-111.953 0-47.13-38.165-85.333-85.295-85.333-200.567 0-434.174 0-634.743 0-47.128 0-85.295 38.101-85.295 85.231 0 128.282-0.002 347.017-0.001 501.534 0 47.128 38.205 85.235 85.333 85.235h634.667c47.13 0 85.333-38.201 85.333-85.329 0-38.176 0-78.18 0-112.006 0-7.879-6.391-14.254-14.268-14.224-14.797 0.064-48.631 0.004-131.494 0.004-47.13 0-85.35-38.204-85.35-85.333v-78.225c0-47.125 38.208-85.333 85.338-85.333 84.092 0 117.009-0.115 131.494-0.047zM773.901 765.337c11.285 0 14.797 15.235 4.681 20.231l-177.51 87.641c-8.734 2.572-17.971-3.76-17.958-13.65v-80c0-7.854 6.366-14.222 14.221-14.222 25.98 0 118.268 0 176.567 0zM497.779 916.448h-247.113c-47.128 0-85.527-38.211-85.893-85.338-0.177-22.873-0.329-43.242-0.329-51.551 0-7.854 6.368-14.222 14.222-14.222h361.779c7.855 0 14.221 6.368 14.221 14.222v80c0 31.378-25.527 56.889-56.887 56.889z" />
<glyph unicode="&#xe94f;" d="M933.333 440v-78.221c0-31.445-25.609-56.887-56.853-56.887h-136.926c-31.36 0-56.887 25.51-56.887 56.887v78.221c0 31.381 25.527 56.892 56.887 56.892h136.892c31.36 0 56.887-25.51 56.887-56.892zM792.883 400.892c0 7.855-6.37 14.221-14.225 14.221h-21.333c-7.851 0-14.221-6.366-14.221-14.221s6.37-14.221 14.221-14.221h21.333c7.855 0 14.225 6.366 14.225 14.221z" />
<glyph unicode="&#xe950;" d="M496.333 492.335h-293.333v-343.002c0-47.13 38.205-85.333 85.333-85.333h208v428.335z" />
<glyph unicode="&#xe951;" d="M853.005 492.335h-293.167v-428.335h207.834c47.125 0 85.333 38.204 85.333 85.333v343.002z" />
<glyph unicode="&#xe952;" d="M768.836 868.832c-17.165 30.167-48.333 48.333-83.166 48.5-34.667 0.167-66.001-17.667-83.499-47.833l-74.001-126.833 51.499-75.333 145.502 66.166c51.332 23.334 71.667 86.167 43.665 135.334zM704.337 778.999l-132.335-60.166 73.169 125.5c8.333 14.333 23.33 23 40 23h0.166c16.666 0 31.667-8.833 40-23.333 13.5-23.5 3.998-53.667-21.001-65z" />
<glyph unicode="&#xe953;" d="M579.499 667.302l-51.499 75.333-74.001 126.833c-17.498 30-48.499 47.833-83.166 47.833-103 0-133.667-141.167-39.833-183.833l145.501-66.167h-263.168c-47.128 0-85.333-38.205-85.333-85.333v-39.666h800v39.666c0 47.128-38.208 85.333-85.333 85.333h-263.168zM351.666 778.969c-45.167 20.667-30.167 88.333 19.167 88.333 16.666 0 31.5-8.5 40-23l73.165-125.5-132.332 60.166z" />
<glyph unicode="&#xe954;" d="M668.506 832h130.018c53.85 0 97.481-44.001 97.481-98.303v-131.119c0-54.302-43.631-98.301-97.481-98.301h-130.018c-53.85 0-97.481 43.999-97.481 98.301v131.119c0 54.302 43.631 98.303 97.481 98.303z" />
<glyph unicode="&#xe955;" d="M225.479 832h130.021c53.847 0 97.479-44.001 97.479-98.303v-131.119c0-54.302-43.632-98.301-97.479-98.301h-130.021c-53.847 0-97.479 43.999-97.479 98.301v131.119c0 54.302 43.632 98.303 97.479 98.303zM225.479 391.727h130.021c53.847 0 97.479-44.002 97.479-98.304v-131.119c0-54.263-43.632-98.3-97.479-98.3h-130.021c-53.847 0-97.479 44.036-97.479 98.3v131.119c0 54.302 43.632 98.304 97.479 98.304zM798.524 391.727h-130.018c-53.85 0-97.481-44.002-97.481-98.304v-131.119c0-54.263 43.631-98.3 97.481-98.3h130.018c53.85 0 97.481 44.036 97.481 98.3v131.119c0 54.302-43.631 98.304-97.481 98.304z" />
<glyph unicode="&#xe956;" d="M296.736 329.303c0-8.289-2.526-16.389-7.259-23.281s-11.459-12.262-19.328-15.437c-7.87-3.169-16.529-3.999-24.884-2.381-8.354 1.613-16.028 5.606-22.051 11.469-6.023 5.857-10.125 13.327-11.787 21.453-1.661 8.131-0.808 16.553 2.451 24.212 3.26 7.654 8.78 14.203 15.862 18.806s15.41 7.060 23.927 7.060c5.657 0.005 11.258-1.080 16.484-3.185s9.975-5.192 13.975-9.083c4-3.891 7.172-8.509 9.335-13.599 2.164-5.084 3.276-10.532 3.274-16.036z" />
<glyph unicode="&#xe957;" d="M512.015 517.813c-95.108 0-172.215-84.405-172.215-188.515s77.108-188.498 172.215-188.498c95.109 0 172.216 84.388 172.216 188.498s-77.107 188.515-172.216 188.515zM533.55 224.573c0-12.6-8.622-20.951-21.535-20.951-12.912 0-21.533 8.387-21.533 20.951h-21.516c-12.95 0-21.534 8.371-21.534 20.951 0 12.585 8.621 20.936 21.534 20.936h64.583c12.948 0 21.514 8.387 21.514 20.951s-8.602 20.936-21.514 20.936h-43.067c-36.593 0-64.584 27.233-64.584 62.838s27.991 62.838 64.584 62.838c0 12.6 8.621 20.952 21.533 20.952s21.535-8.388 21.535-20.952h21.514c12.954 0 21.535-8.371 21.535-20.936s-8.622-20.951-21.535-20.951h-64.582c-12.95 0-21.516-8.371-21.516-20.951s8.603-20.936 21.516-20.936h43.067c36.593 0 64.563-27.233 64.563-62.838s-27.971-62.838-64.563-62.838z" />
<glyph unicode="&#xe958;" d="M813.435 329.303c0-8.289-2.524-16.394-7.26-23.286-4.731-6.886-11.459-12.262-19.328-15.432-7.875-3.169-16.532-3.999-24.888-2.381s-16.031 5.612-22.052 11.474c-6.021 5.862-10.122 13.327-11.781 21.458s-0.804 16.558 2.458 24.212c3.261 7.66 8.786 14.203 15.872 18.806s15.411 7.055 23.931 7.050c5.652 0 11.254-1.080 16.476-3.19 5.228-2.104 9.974-5.192 13.972-9.083 3.994-3.891 7.168-8.509 9.329-13.594s3.277-10.537 3.272-16.036z" />
<glyph unicode="&#xe959;" d="M942.551 601.6h-861.102c-11.408-0.038-22.339-4.466-30.404-12.317s-12.611-18.487-12.645-29.587v-460.798c0.034-11.1 4.581-21.734 12.647-29.583s18.996-12.273 30.403-12.303h861.102c11.407 0.031 22.339 4.454 30.403 12.303s12.611 18.483 12.646 29.583v460.798c-0.036 11.101-4.582 21.737-12.646 29.587s-18.995 12.279-30.403 12.317v0zM942.551 182.687c-22.82-0.067-44.682-8.914-60.82-24.617-16.133-15.698-25.231-36.972-25.298-59.172h-688.866c-0.068 22.2-9.163 43.474-25.298 59.172-16.136 15.703-38 24.55-60.819 24.617v293.237c22.817 0.062 44.682 8.907 60.818 24.603s25.231 36.968 25.299 59.169h688.866c0.067-22.2 9.165-43.472 25.298-59.169 16.138-15.696 38.001-24.541 60.82-24.603v-293.237z" />
<glyph unicode="&#xe95a;" d="M856.484 559.7h-688.866c-0.069-22.2-9.164-43.472-25.3-59.169s-38.001-24.542-60.817-24.603v-293.236c22.819-0.067 44.683-8.919 60.818-24.617s25.23-36.972 25.299-59.177h688.866c0.067 22.205 9.165 43.479 25.298 59.177 16.138 15.698 38.001 24.55 60.82 24.617v293.236c-22.82 0.061-44.682 8.907-60.82 24.603-16.133 15.696-25.231 36.968-25.298 59.169zM253.716 287.416c-8.519 0-16.846 2.458-23.929 7.060-7.083 4.608-12.603 11.151-15.862 18.811-3.259 7.654-4.111 16.082-2.447 24.212s5.767 15.596 11.792 21.453c6.025 5.862 13.701 9.851 22.056 11.464 8.355 1.618 17.016 0.783 24.885-2.391s14.595-8.545 19.324-15.442c4.73-6.892 7.253-14.996 7.249-23.286 0-5.499-1.114-10.947-3.279-16.031s-5.337-9.702-9.336-13.594c-4-3.886-8.748-6.973-13.972-9.078s-10.825-3.185-16.48-3.18zM512.051 140.805c-95.109 0-172.217 84.383-172.217 188.493 0 104.115 77.108 188.516 172.217 188.516s172.216-84.401 172.216-188.516c0-104.11-77.107-188.493-172.216-188.493zM770.386 287.416c-8.52-0.005-16.85 2.447-23.936 7.050s-12.611 11.151-15.872 18.806c-3.261 7.66-4.116 16.087-2.452 24.218 1.659 8.131 5.765 15.596 11.786 21.458 6.026 5.862 13.701 9.856 22.057 11.469 8.356 1.618 17.019 0.788 24.888-2.386s14.597-8.55 19.328-15.442c4.731-6.897 7.255-15.002 7.25-23.291 0-11.105-4.536-21.76-12.611-29.614-8.074-7.859-19.021-12.268-30.438-12.268z" />
<glyph unicode="&#xe95b;" d="M638.689 731.428l-121.155 116.731c-3.564 3.433-7.129 3.433-10.692 6.867-7.127 3.433-14.254 3.433-24.944 0-3.564 0-7.127-3.433-10.69-6.867l-117.592-116.731c-10.69-10.3-10.69-30.899 0-41.199s32.071-10.3 42.761 0l71.267 68.665v-100.195c0-17.166 14.254-30.899 32.071-30.899 17.819 0 32.073 13.733 32.073 30.899v100.195l71.265-68.665c10.691-10.3 32.072-10.3 42.762 0s7.127 30.899-7.127 41.199z" />
<glyph unicode="&#xe95c;" d="M302.533 585.302c0-8.288-2.458-16.39-7.062-23.281s-11.149-12.262-18.806-15.434c-7.657-3.171-16.082-4.001-24.211-2.384s-15.595 5.608-21.455 11.468c-5.86 5.86-9.851 13.327-11.468 21.455s-0.787 16.554 2.384 24.211c3.172 7.657 8.543 14.201 15.434 18.806s14.993 7.062 23.281 7.062c5.503 0.003 10.954-1.080 16.039-3.185s9.705-5.192 13.597-9.083c3.891-3.892 6.978-8.512 9.083-13.597s3.187-10.535 3.185-16.039z" />
<glyph unicode="&#xe95d;" d="M511.987 773.813c-92.538 0-167.562-84.402-167.562-188.514s75.024-188.498 167.562-188.498c92.536 0 167.56 84.386 167.56 188.498s-75.023 188.514-167.56 188.514zM532.941 480.574c0-12.6-8.392-20.952-20.954-20.952-12.564 0-20.952 8.388-20.952 20.952h-20.934c-12.6 0-20.952 8.37-20.952 20.952s8.388 20.934 20.952 20.934h62.84c12.6 0 20.931 8.388 20.931 20.952s-8.366 20.934-20.931 20.934h-41.906c-35.604 0-62.838 27.234-62.838 62.838s27.234 62.838 62.838 62.838c0 12.6 8.388 20.952 20.952 20.952 12.562 0 20.954-8.388 20.954-20.952h20.931c12.6 0 20.956-8.37 20.956-20.934s-8.392-20.952-20.956-20.952h-62.836c-12.6 0-20.934-8.37-20.934-20.952s8.37-20.934 20.934-20.934h41.906c35.604 0 62.817-27.234 62.817-62.838s-27.213-62.838-62.817-62.838z" />
<glyph unicode="&#xe95e;" d="M805.258 585.302c0-8.288-2.458-16.391-7.066-23.282-4.603-6.892-11.151-12.262-18.806-15.434-7.66-3.171-16.087-4-24.212-2.381-8.131 1.618-15.596 5.611-21.458 11.473-5.857 5.862-9.851 13.33-11.464 21.46s-0.783 16.556 2.391 24.212c3.174 7.656 8.55 14.2 15.442 18.802s14.996 7.057 23.286 7.053c5.504 0 10.952-1.084 16.031-3.19 5.084-2.106 9.702-5.193 13.594-9.084s6.973-8.511 9.078-13.595c2.104-5.084 3.185-10.532 3.185-16.035z" />
<glyph unicode="&#xe95f;" d="M930.913 857.6h-837.827c-11.101-0.038-21.735-4.466-29.582-12.317s-12.271-18.487-12.304-29.587v-460.798c0.033-11.1 4.457-21.734 12.305-29.583s18.483-12.273 29.581-12.303h837.827c11.1 0.031 21.734 4.454 29.583 12.303s12.273 18.483 12.303 29.583v460.798c-0.031 11.101-4.454 21.737-12.303 29.587s-18.483 12.279-29.583 12.317v0zM930.913 438.687c-22.2-0.067-43.474-8.914-59.172-24.617-15.703-15.698-24.55-36.972-24.617-59.172h-670.248c-0.067 22.2-8.915 43.474-24.615 59.172-15.699 15.703-36.973 24.55-59.175 24.617v293.237c22.2 0.062 43.474 8.907 59.174 24.603s24.549 36.968 24.616 59.169h670.248c0.067-22.2 8.914-43.472 24.617-59.169 15.698-15.696 36.972-24.541 59.172-24.603v-293.237z" />
<glyph unicode="&#xe960;" d="M847.15 815.7h-670.247c-0.067-22.2-8.916-43.472-24.616-59.169s-36.974-24.542-59.174-24.603v-293.236c22.202-0.067 43.476-8.919 59.175-24.617s24.548-36.972 24.615-59.177h670.247c0.067 22.205 8.914 43.479 24.617 59.177 15.698 15.698 36.972 24.55 59.172 24.617v293.236c-22.2 0.061-43.474 8.907-59.172 24.603s-24.55 36.968-24.617 59.169zM260.675 543.414c-8.289 0-16.391 2.458-23.283 7.063s-12.262 11.151-15.433 18.809c-3.171 7.658-4 16.084-2.382 24.214s5.611 15.596 11.473 21.455c5.862 5.86 13.33 9.849 21.46 11.464s16.556 0.782 24.212-2.392c7.657-3.174 14.2-8.548 18.803-15.441s7.057-14.997 7.053-23.286c0-5.502-1.084-10.95-3.19-16.033s-5.193-9.701-9.084-13.591c-3.891-3.89-8.511-6.974-13.595-9.078s-10.532-3.186-16.034-3.183zM512.026 396.805c-92.537 0-167.561 84.383-167.561 188.495s75.024 188.514 167.561 188.514c92.539 0 167.562-84.402 167.562-188.514s-75.023-188.495-167.562-188.495zM763.377 543.414c-8.289-0.004-16.389 2.451-23.286 7.054-6.892 4.603-12.268 11.147-15.442 18.805s-4.004 16.084-2.386 24.215c1.613 8.13 5.606 15.598 11.469 21.46 5.857 5.861 13.327 9.852 21.458 11.469s16.558 0.785 24.212-2.389c7.66-3.174 14.203-8.547 18.806-15.441s7.060-14.998 7.055-23.287c0-11.109-4.413-21.763-12.268-29.618s-18.509-12.268-29.619-12.268z" />
<glyph unicode="&#xe961;" d="M472.26 545.151c-18.483 0-34.867-11.903-40.58-29.482l-24.55-75.558c-5.712-17.583 0.545-36.838 15.5-47.706l64.273-46.699c14.955-10.863 35.204-10.863 50.159 0l64.277 46.699c14.95 10.867 21.21 30.123 15.497 47.706l-24.55 75.558c-5.713 17.579-22.093 29.482-40.58 29.482h-79.445z" />
<glyph unicode="&#xe962;" d="M879.791 231.458c31.151 52.702 50.513 111.539 56.691 173.231l-66.142-47.829c-14.98-10.829-21.282-30.076-15.612-47.667l25.062-77.734z" />
<glyph unicode="&#xe963;" d="M641.536 583.359c-8.094-11.063-10.381-25.34-6.144-38.377l33.655-103.583c4.203-12.932 14.315-23.083 27.226-27.341l94.558-31.155c12.996-4.279 27.264-2.069 38.353 5.952l109.013 78.822c-3.46 76.783-27.17 149.883-68.54 213.154l-134.921 0.23c-13.636 0.023-26.462-6.471-34.509-17.475l-58.692-80.228z" />
<glyph unicode="&#xe964;" d="M486.959 262.071c0 13.658-6.537 26.487-17.587 34.517l-88.101 64.009c-11.038 8.017-25.245 10.274-38.225 6.071l-94.651-30.656c-12.999-4.207-23.195-14.391-27.425-27.383l-41.626-127.863c9.632-11.947 19.935-23.458 30.94-34.466 43.381-43.379 94.468-76.25 150.164-97.37l108.925 79.138c11.051 8.026 17.587 20.86 17.587 34.517v99.486z" />
<glyph unicode="&#xe965;" d="M341.313 839.266c-48.269-21.071-92.66-51.207-131.021-89.568-5.809-5.809-11.407-11.771-16.835-17.848l81.763-0.093c18.481-0.021 34.875 11.859 40.61 29.428l25.484 78.081z" />
<glyph unicode="&#xe966;" d="M87.36 405.897c6.005-61.722 25.213-120.606 56.201-173.389l25.282 77.658c5.722 17.574-0.524 36.838-15.472 47.714l-66.011 48.017z" />
<glyph unicode="&#xe967;" d="M423.105 612.858c8.025-11.092 20.88-17.66 34.572-17.66h108.851c13.611 0 26.402 6.492 34.436 17.475l58.782 80.35c8.081 11.044 10.372 25.293 6.165 38.314l-41.51 128.428c-36.186 9.817-73.907 14.902-112.414 14.902-38.093 0-75.413-4.985-111.247-14.595l-41.906-128.401c-4.234-12.973-2.007-27.188 5.991-38.244l58.279-80.568z" />
<glyph unicode="&#xe968;" d="M327.585 414.263c13.007 4.211 23.207 14.404 27.432 27.405l33.641 103.537c4.211 12.96 1.978 27.151-6.008 38.191l-58.33 80.638c-8.013 11.078-20.849 17.644-34.522 17.66l-134.819 0.154c-41.562-63.169-65.48-136.202-69.157-212.951l108.88-79.198c11.040-8.030 25.257-10.295 38.245-6.089l94.637 30.652z" />
<glyph unicode="&#xe969;" d="M680.896 366.434c-13.030 4.292-27.332 2.057-38.43-6.007l-87.872-63.842c-11.046-8.026-17.587-20.86-17.587-34.517v-99.486c0-13.658 6.541-26.487 17.587-34.517l108.924-79.138c55.697 21.124 106.786 53.99 150.165 97.374 10.714 10.714 20.766 21.909 30.178 33.515l-41.293 128.077c-4.181 12.971-14.31 23.168-27.255 27.43l-94.417 31.113z" />
<glyph unicode="&#xe96a;" d="M831.33 730.945c-5.679 6.393-11.541 12.658-17.638 18.754-38.067 38.068-82.069 68.046-129.911 89.093l25.263-78.163c5.683-17.586 22.046-29.513 40.525-29.545l81.762-0.139z" />
<glyph unicode="&#xe96b;" d="M420.958 31.036c29.577-6.396 60.045-9.702 91.025-9.702s61.444 3.307 91.021 9.702l-91.021 66.129-91.025-66.129z" />
<glyph unicode="&#xe96c;" glyph-name="ic_more" d="M512 960l-90.24-90.24 357.12-357.76h-778.88v-128h778.88l-357.12-357.76 90.24-90.24 512 512-512 512z" />
<glyph unicode="&#xe96d;" horiz-adv-x="784" d="M584.573 879.476c0 44.386-37.642 80.524-83.781 80.524-20.848 0-40.154-7.463-54.825-19.64-14.672 12.177-33.781 19.64-54.823 19.64s-40.154-7.463-54.825-19.64c-14.672 12.177-33.783 19.64-54.825 19.64-46.137 0-83.78-36.137-83.78-80.524 0-15.516 4.633-30.442 13.127-43.404 0.772-1.375 1.737-2.75 2.702-4.124 19.498-24.746 29.73-54.010 29.73-84.648 0-1.375 0-2.75 0-4.124h301.15c-0.194 2.553-0.194 5.303-0.194 8.052 0 32.209 9.846 62.848 28.378 88.773 11.003 14.926 11.968 25.336 11.968 39.476zM695.189 743.175h-150.576l15.251-58.919h135.325c16.794 0 30.308-13.946 30.308-30.835v-75.22c0-16.301 12.933-29.461 28.955-29.461 16.025 0 28.957 13.159 28.957 29.461v75.22c0 49.492-39.574 89.754-88.221 89.754z" />
<glyph unicode="&#xe96e;" horiz-adv-x="784" d="M240.095 322.277h-55.018c1.931 49.884 21.235 97.217 54.439 133.747l38.801-39.476c-22.779-25.729-36.485-59.115-38.221-94.271z" />
<glyph unicode="&#xe96f;" horiz-adv-x="784" d="M278.511 210.951l-38.801-39.476c-33.205 36.727-52.509 84.057-54.633 133.944h54.824c1.93-34.96 15.637-68.347 38.609-94.467z" />
<glyph unicode="&#xe970;" horiz-adv-x="784" d="M290.132 428.927l-38.803 39.476c35.908 33.779 82.624 53.42 131.464 55.383v-55.974c-34.169-1.767-66.793-15.711-92.661-38.886z" />
<glyph unicode="&#xe971;" horiz-adv-x="784" d="M290.136 198.95c25.674-23.371 58.298-37.317 92.853-39.084v-55.777c-49.032 1.963-95.557 21.604-131.462 55.385l38.609 39.476z" />
<glyph unicode="&#xe972;" horiz-adv-x="784" d="M492.592 198.95l38.801-39.476c-35.905-33.781-82.624-53.422-131.464-55.385v55.777c34.169 1.767 66.987 15.515 92.663 39.084z" />
<glyph unicode="&#xe973;" horiz-adv-x="784" d="M492.683 428.734c-25.676 23.373-58.3 37.121-92.855 39.084v55.777c49.032-1.963 95.557-21.604 131.464-55.383l-38.609-39.478z" />
<glyph unicode="&#xe974;" horiz-adv-x="784" d="M543.084 305.418h54.825c-1.933-49.886-21.236-97.219-54.44-133.747l-38.801 39.476c22.97 25.925 36.677 59.311 38.415 94.271z" />
<glyph unicode="&#xe975;" horiz-adv-x="784" d="M543.469 456.24c33.204-36.531 52.507-84.060 54.44-133.747h-55.019c-1.93 34.958-15.443 68.347-38.221 94.467l38.801 39.28z" />
<glyph unicode="&#xe976;" horiz-adv-x="784" d="M610.406 630.050c-21.234 13.353-38.415 32.404-49.418 54.207h-330.493c-0.58 0-1.159 0-1.739 0-11.196-21.016-28.57-39.084-50.191-52.636-111.773-68.741-178.566-184.224-178.566-308.74 0-98.79 41.119-191.686 115.827-261.408 73.936-68.937 172.196-107.039 276.439-107.039 104.245 0 202.504 37.905 276.441 107.039 74.708 69.721 115.827 162.422 115.827 261.408-0.194 123.536-65.251 238.429-174.128 307.169zM391.495 81.504c-126.25 0-228.372 104.093-228.372 232.341s102.313 232.341 228.372 232.341c126.059 0 228.566-104.093 228.566-232.341s-102.315-232.341-228.566-232.341z" />
<glyph unicode="&#xe977;" horiz-adv-x="784" d="M240.095 322.277h-55.018c1.931 49.884 21.235 97.217 54.439 133.747l38.801-39.476c-22.779-25.729-36.485-59.115-38.221-94.271z" />
<glyph unicode="&#xe978;" horiz-adv-x="784" d="M278.511 210.951l-38.801-39.476c-33.205 36.727-52.509 84.057-54.633 133.944h54.824c1.93-34.96 15.637-68.347 38.609-94.467z" />
<glyph unicode="&#xe979;" horiz-adv-x="784" d="M290.132 428.927l-38.803 39.476c35.908 33.779 82.624 53.42 131.464 55.383v-55.974c-34.169-1.767-66.793-15.711-92.661-38.886z" />
<glyph unicode="&#xe97a;" horiz-adv-x="784" d="M290.136 198.95c25.674-23.371 58.298-37.317 92.853-39.084v-55.777c-49.032 1.963-95.557 21.604-131.462 55.385l38.609 39.476z" />
<glyph unicode="&#xe97b;" horiz-adv-x="784" d="M492.592 198.95l38.801-39.476c-35.905-33.781-82.624-53.422-131.464-55.385v55.777c34.169 1.767 66.987 15.515 92.663 39.084z" />
<glyph unicode="&#xe97c;" horiz-adv-x="784" d="M492.683 428.734c-25.676 23.373-58.3 37.121-92.855 39.084v55.777c49.032-1.963 95.557-21.604 131.464-55.383l-38.609-39.478z" />
<glyph unicode="&#xe97d;" horiz-adv-x="784" d="M543.084 305.418h54.825c-1.933-49.886-21.236-97.219-54.44-133.747l-38.801 39.476c22.97 25.925 36.677 59.311 38.415 94.271z" />
<glyph unicode="&#xe97e;" horiz-adv-x="784" d="M504.669 416.764l38.801 39.476c33.204-36.531 52.507-84.060 54.44-133.747h-55.019c-1.736 34.958-15.443 68.347-38.221 94.271z" />
<glyph unicode="&#xe97f;" horiz-adv-x="784" d="M382.917 324.432v70.508c-16.025-3.928-27.413-18.659-27.413-35.352s11.582-31.228 27.413-35.156z" />
<glyph unicode="&#xe980;" horiz-adv-x="784" d="M391.436 451.118c-74.515-0.196-134.745-61.475-134.937-137.284 0-75.811 60.423-137.284 134.937-137.284 74.517 0 134.939 61.473 134.939 137.284-0.194 75.809-60.616 137.284-134.939 137.284zM443.366 261.591c-3.667-22.781-21.234-40.655-43.435-44.189v-9.82c0-4.715-3.667-8.447-8.495-8.447-4.632 0-8.301 3.732-8.301 8.447v9.82c-7.721 1.179-14.863 4.32-21.428 8.641-3.475-3.142-8.687-2.75-11.776 0.59-1.351 1.571-1.93 3.534-1.93 5.695v17.872c0 4.713 3.669 8.445 8.301 8.445 4.634 0 8.495-3.732 8.495-8.445v-4.32c4.826-5.695 11.196-9.623 18.532-11.393v72.277c-28.764 4.516-48.261 32.012-43.629 61.078 3.669 22.783 21.042 40.655 43.435 44.191v7.856c0 4.713 3.669 8.445 8.495 8.445 4.634 0 8.301-3.732 8.301-8.445v-7.66c7.53-1.179 14.672-4.124 21.042-8.445 3.281 3.142 8.687 3.142 11.968-0.392 1.545-1.573 2.318-3.732 2.318-5.893v-17.676c0-4.713-3.669-8.445-8.301-8.445-4.634 0-8.495 3.732-8.495 8.445v3.928c-4.826 5.499-11.196 9.427-18.338 10.998v-72.275c28.376-4.32 47.875-31.62 43.241-60.884z" />
<glyph unicode="&#xe981;" horiz-adv-x="784" d="M531.199 159.474c-35.908-33.781-82.624-53.422-131.464-55.385v55.777c34.363 1.963 67.181 15.713 92.855 39.084l38.609-39.476z" />
<glyph unicode="&#xe982;" horiz-adv-x="784" d="M531.203 468.21l-38.801-39.476c-25.674 23.373-58.3 37.121-92.855 39.084v55.777c49.226-1.767 95.751-21.604 131.656-55.385z" />
<glyph unicode="&#xe983;" horiz-adv-x="784" d="M597.813 305.389c-1.93-49.886-21.236-97.219-54.44-133.75l-38.801 39.476c22.972 26.123 36.677 59.314 38.415 94.469h54.825v-0.196z" />
<glyph unicode="&#xe984;" horiz-adv-x="784" d="M427.147 269.85c0 16.693-11.39 31.424-27.413 35.352v-70.704c16.022 4.124 27.413 18.659 27.413 35.352z" />
<glyph unicode="&#xe985;" horiz-adv-x="784" d="M278.511 416.744c-22.972-25.925-36.679-59.311-38.415-94.467h-55.018c1.931 49.884 21.235 97.217 54.439 133.747l38.995-39.28z" />
<glyph unicode="&#xe986;" horiz-adv-x="784" d="M278.511 210.927l-38.801-39.476c-33.205 36.725-52.509 84.057-54.633 133.944h54.824c1.93-34.96 15.637-68.347 38.609-94.467z" />
<glyph unicode="&#xe987;" horiz-adv-x="784" d="M597.813 322.486h-55.019c-1.93 34.96-15.443 68.347-38.221 94.469l38.801 39.476c33.204-36.727 52.509-84.060 54.44-133.946z" />
<glyph unicode="&#xe988;" horiz-adv-x="784" d="M382.895 159.866v-55.777c-49.032 1.963-95.557 21.604-131.464 55.385l38.803 39.476c25.674-23.569 58.298-37.317 92.661-39.084z" />
<glyph unicode="&#xe989;" horiz-adv-x="784" d="M382.987 523.787v-55.974c-34.363-1.963-67.181-15.711-92.855-38.886l-38.803 39.476c36.099 33.779 82.624 53.42 131.658 55.383z" />
<glyph unicode="&#xe98a;" d="M444.065 420.748c-31.46-75.348-101.397-130.455-185.363-140.874 31.462 75.345 101.399 130.653 185.363 140.874z" />
<glyph unicode="&#xe98b;" d="M704.573 190.694c0-128.049-103.803-231.852-231.852-231.852-128.051 0-231.855 103.803-231.855 231.852 0 31.663 6.414 61.722 17.836 89.174 31.46 75.348 101.397 130.455 185.36 140.877 9.418 1.201 19.037 1.804 28.658 1.804 128.049 0 231.852-103.803 231.852-231.855z" />
<glyph unicode="&#xe98c;" d="M461.901 509.922c0-28.255-5.008-55.308-14.427-80.356-90.778-9.619-166.726-69.136-199.389-150.696-6.011-0.4-12.025-0.801-18.236-0.801-128.050 0-231.853 103.803-231.853 231.852 0 128.051 103.803 231.854 231.853 231.854 128.051 0.2 232.052-103.602 232.052-231.854z" />
<glyph unicode="&#xe98d;" d="M229.848 419.945c-72.141 0-130.655 58.515-130.655 130.655s58.514 130.655 130.655 130.655c72.141 0 130.655-58.515 130.655-130.655s-58.515-130.655-130.655-130.655zM235.264 564.629c-1.201 0.2-1.403 1.203-0.801 1.804l21.311 21.127c1.785 2.181 3.74 4.571 3.938 8.129 0.2 5.011-0.801 9.018-6.011 9.018h-52.102c-5.21 0-6.613-4.408-6.613-9.018 0-4.608 1.403-9.016 6.613-9.016h30.66c-2.405-2.004-4.208-3.607-6.012-5.811l-14.428-15.432c-2.605-2.804-4.008-6.612-2.405-10.619 1.202-3.607 4.809-6.011 8.416-5.611 13.426 1.804 29.056-0.4 28.456-17.233-0.2-10.019-6.612-17.634-17.234-17.634-8.817 0-14.027 3.005-18.035 10.819-2.204 4.61-7.014 5.211-11.823 3.407-5.21-2.204-7.214-7.014-4.81-12.425 6.012-13.426 19.438-19.037 34.267-19.237 21.842 0 38.075 14.229 38.075 36.473 0 17.834-12.625 30.659-31.462 31.26z" />
<glyph unicode="&#xe98e;" d="M704.573 190.694c0-128.049-103.803-231.852-231.852-231.852-128.051 0-231.855 103.803-231.855 231.852 0 31.663 6.414 61.722 17.836 89.174 31.46 75.348 101.397 130.455 185.36 140.877 9.418 1.201 19.037 1.804 28.658 1.804 128.049 0 231.852-103.803 231.852-231.855z" />
<glyph unicode="&#xe98f;" d="M1021.994 704.098c0-128.049-103.803-231.852-231.852-231.852-128.051 0-231.852 103.803-231.852 231.852 0 128.051 103.801 231.854 231.852 231.854 128.049 0 231.852-103.803 231.852-231.854z" />
<glyph unicode="&#xe990;" d="M603.378 190.697c0 72.141-58.515 130.655-130.655 130.655s-130.655-58.515-130.655-130.655c0-72.141 58.515-130.655 130.655-130.655s130.655 58.515 130.655 130.655zM396.169 152.625c0 6.011 2.807 9.619 5.011 12.223 9.018 10.221 18.837 17.836 29.456 26.051 8.618 6.614 17.636 15.030 17.636 24.048 0 10.219-6.214 15.83-16.833 15.83-7.615 0-13.426-4.208-15.43-12.826-1.203-5.409-6.014-7.012-11.022-6.412-5.011 0.4-7.615 2.604-7.615 7.815 1.201 19.037 16.833 29.058 34.067 29.058 20.238 0 37.271-9.821 37.271-31.462 0-16.033-9.619-25.851-21.441-35.47-2.932-2.444-6.014-4.815-9.086-7.182v0c-5.744-4.424-11.464-8.827-16.163-13.659-0.6-0.6-0.603-1.603 0.6-1.603h40.278c5.011 0 6.414-4.608 6.414-9.016 0-4.61-1.403-9.018-6.414-9.018h-56.308c-8.218 0.2-10.422 2.604-10.422 11.622zM501.569 207.53c5.011 3.807 11.823 5.411 18.237 5.411 20.438 0 33.664-15.83 34.067-36.070 0-20.841-15.632-37.271-37.073-37.271-27.453 0-37.071 22.644-37.071 47.693 0 29.256 18.434 55.708 46.69 62.322 5.211 1.201 10.221-0.2 13.026-5.011 2.804-5.011 0.801-8.818-4.608-10.422-13.629-3.605-28.055-12.023-33.266-26.652zM500.166 175.87c0-9.218 5.211-20.040 16.233-20.040 11.622 0 17.033 10.221 16.833 20.641 0 11.222-4.61 19.037-16.633 19.037-11.222 0-16.433-10.019-16.433-19.638z" />
<glyph unicode="&#xe991;" d="M790.144 531.963c-72.141 0-130.655 58.512-130.655 130.653 0 72.142 58.515 130.656 130.655 130.656s130.655-58.514 130.655-130.656c0-72.141-58.515-130.653-130.655-130.653zM818.199 707.507c0 4.608-1.201 9.016-6.412 9.016v0.202h-40.881c-8.816 0-10.619-3.407-12.023-13.629l-4.008-30.057c-1.403-10.622 8.415-13.829 16.633-11.022 15.83 5.611 35.067 0.801 34.867-17.836 0-10.019-6.011-18.434-16.833-18.434-8.818 0-13.426 3.807-17.834 11.020-3.207 4.61-7.815 5.011-12.826 2.807-5.411-2.404-6.614-6.211-4.408-11.222 6.211-13.826 19.838-19.638 34.667-19.638 22.044 0 37.274 14.427 37.474 36.471 0.4 28.055-21.243 38.274-46.692 33.464-3.007-0.6-4.81 0-4.208 3.807l1.804 12.826c0.4 2.204 0.6 3.007 2.804 3.007h31.462c5.211 0 6.412 4.608 6.412 9.218z" />
<glyph unicode="&#xe992;" glyph-name="ic_phone" d="M512.018 870.957c158.279 0 287.107-136.018 291.693-305.718l0.107-9.27v-3.545h24.509c58.889 0 106.63-51.558 106.63-115.113v-116.629c0-63.599-47.741-115.155-106.63-115.155h-40.497c-41.913 0-75.834 36.637-75.834 81.84v183.18c0 27.96 13 52.628 32.786 67.401v17.985c0 138.788-104.216 251.281-232.764 251.281-125.955 0-228.537-107.951-232.657-242.824l-0.142-8.494v-17.948c19.785-14.773 32.785-39.441 32.785-67.365v-183.216c0-28.249-13.249-53.181-33.389-67.842 19.181-54.771 63.297-95.615 117.146-107.248l7.14-1.367 19.11-3.174c4.37 7.159 10.401 13.063 17.538 17.168 7.139 4.105 15.153 6.278 23.309 6.318h98.322c27.172 0 49.197-23.784 49.197-53.106s-22.025-53.070-49.197-53.070h-98.357c-9.964 0.102-19.663 3.348-27.819 9.301s-14.382 14.34-17.859 24.051l-21.206 3.544c-74.805 12.408-136.397 68.1-161.51 143.587h-38.717c-58.928 0.040-106.667 51.632-106.667 115.191v116.594c0 63.555 47.739 115.113 106.667 115.113h24.474v3.545c0 173.91 130.643 314.988 291.834 314.988zM236.203 488.715h-40.493c-26.32 0-47.632-23.004-47.632-51.405v-116.629c0-28.44 21.312-51.449 47.597-51.449h40.528c9.236 0 16.766 8.125 16.766 18.098v183.292c0 9.968-7.495 18.094-16.766 18.094zM828.327 488.715h-40.497c-9.305 0-16.798-8.125-16.798-18.094v-183.216c0-10.008 7.493-18.098 16.762-18.098h40.497c26.317 0 47.665 23.009 47.665 51.409v116.594c0 28.4-21.313 51.405-47.629 51.405z" />
<glyph unicode="&#xe993;" d="M668.002 664.364h-349.454l-99.091-99.091c-3.091-3.093-5.818-6.728-8-10.363-3.455-6.002-5.454-12.728-6.182-19.456-1.455-14.182 3.273-28.728 14.182-39.636l331.455-331.455c19.091-19.091 50.181-19.091 69.455 0l106.363 106.363v335.090c-0.182 32.365-26.363 58.547-58.729 58.547zM551.094 565.090c19.091 19.093 49.818 19.093 68.908 0 2.183-2.181 4.001-4.364 5.637-6.726 1.091-1.636 2.183-3.272 3.091-5.092 9.637-18.362 6.91-41.635-8.727-57.272-18.362-18.365-47.635-19.091-66.909-1.999-0.726 0.545-1.455 1.271-1.999 1.999-4.182 4.182-7.454 8.909-9.819 14.182-4.545 10-5.637 21.455-3.091 32 1.455 5.637 3.819 11.089 7.273 16 1.636 2.546 3.454 4.727 5.637 6.907zM343.457 565.090c19.091 19.093 49.818 19.093 68.911 0 2.181-2.181 3.998-4.364 5.634-6.726 3.456-4.911 5.818-10.363 7.273-16 2.728-10.545 1.638-22-2.909-32-2.362-5.092-5.634-9.819-9.816-14.182-0.728-0.726-1.455-1.273-2.001-1.999-18.362-16.365-46.364-16.365-64.726 0-0.728 0.545-1.455 1.273-2.001 1.999-4.18 4.182-7.454 8.909-9.816 14.182-4.545 10-5.637 21.455-3.091 32 1.455 5.637 3.817 11.089 7.273 16 1.455 2.362 3.272 4.545 5.271 6.726zM620.002 288.545c-2.362-2.362-4.727-4.364-7.454-6-18.909-12.726-44.728-10.545-61.454 6-1.455 1.455-2.728 2.909-4.001 4.547-3.454 4.361-6 9.272-7.636 14.362-5.818 16.91-1.818 36.547 11.636 50.001 15.637 15.637 39.273 18.362 57.637 8.364 3.998-2.183 7.817-4.911 11.271-8.364 19.091-18.909 19.091-49.818 0-68.911zM951.638 565.274l-331.455 331.454c-19.091 19.091-50.181 19.091-69.453 0l-220.183-220.364h349.456c32.363 0 58.545-26.182 58.545-58.545v-334.909l213.090 213.090c19.091 19.091 19.091 50.183 0 69.274zM620.002 703.637c-19.091-19.091-49.818-19.091-68.908 0s-19.091 49.818 0 68.908c19.091 19.091 49.818 19.091 68.908 0 19.091-18.909 19.091-49.818 0-68.908zM827.639 496.182c-19.091-19.091-49.818-19.091-68.908 0s-19.091 49.818 0 68.908c19.091 19.093 49.818 19.093 68.908 0 18.909-19.091 18.909-49.999 0-68.908z" />
<glyph unicode="&#xe994;" d="M726.542 605.819v-559.818c0-13.091-4.364-25.274-11.636-35.091-10.729-14.364-27.818-23.457-46.911-23.457h-559.817c-32.364 0-58.545 26.182-58.545 58.547v559.818c0 19.272 9.273 36.361 23.636 47.090 9.818 7.273 21.818 11.455 34.909 11.455h559.817c32.365 0 58.547-26.182 58.547-58.545z" />
<glyph unicode="&#xe995;" d="M540.36 446.182h-9.456c1.091-19.819-1.273-39.454-6.91-58.363-6.181-20.545-16.363-39.82-29.817-56.727 13.635-4.729 25.090-14.364 31.818-27.092 12.181 2.546 23.817 7.091 34.546 13.091 22.726 13.091 40.727 32.728 51.998 56.364v0.726c0 39.636-32.363 71.82-72.18 72.001z" />
<glyph unicode="&#xe996;" d="M568.362 302.909c-11.636-6.544-23.999-11.455-37.090-14.364 0.726-3.454 1.089-7.089 1.089-10.726v-32c0-6.91-0.726-13.635-2.181-20.364 10.908-0.182 21.637 1.091 32.182 4.001 17.818 4.727 34.365 13.817 48 26.182 1.455 7.273 2.183 14.727 2.183 22.181v64.728c-11.636-16.184-26.729-29.819-44.183-39.638z" />
<glyph unicode="&#xe997;" d="M531.814 209.273c-2.183 0-4.364 0.182-6.547 0.363-9.635-21.818-26.363-39.999-47.453-51.272 1.089-0.728 1.999-1.636 3.091-2.365 8.727-6.363 18.362-11.271 28.544-14.545 40.911 20.545 76.002 50.365 92.546 88.001-20.908-13.272-45.272-20.182-70.181-20.182z" />
<glyph unicode="&#xe998;" d="M343.992 198.726c-15.816 7.454-33.455 10.547-50.909 8.909 15.637-16.908 37.092-44.362 30.364-61.091-7.999-19.635-55.454-22.181-85.453-21.634 9.272-10 20.364-18.183 32.726-23.82 40.727-15.637 81.091-3.272 103.091 6.547l13.817 34.362c-7.089 23.454-22.726 43.636-43.636 56.727z" />
<glyph unicode="&#xe999;" d="M462.362 150.547c-19.274-8.183-39.638-13.638-60.365-16.365l-9.819-24.546c33.455 2.001 66.365 9.637 97.273 22.547-6.363 3.091-12.181 6.726-17.818 10.908-3.272 2.365-6.363 4.911-9.272 7.457z" />
<glyph unicode="&#xe99a;" d="M251.818 406c4.419 0 8.001 3.582 8.001 8.001 0 4.417-3.582 7.999-8.001 7.999-4.417 0-7.999-3.582-7.999-7.999 0-4.419 3.582-8.001 7.999-8.001z" />
<glyph unicode="&#xe99b;" d="M515.093 446.182h-113.273c7.999-17.636 11.636-37.092 10.363-56.546-1.091-22.547-2.546-41.090-9.456-55.636h73.093c27.636 30.545 41.637 70.907 39.273 112.182z" />
<glyph unicode="&#xe99c;" d="M383.637 446.182h-171.817v-24.001c0-48.726 39.454-88.18 88.182-88.18h84.182c9.272 12.362 10.908 30.727 11.999 56.543 1.273 19.274-3.091 38.547-12.546 55.638zM251.82 390c-13.272 0-24.001 10.726-24.001 24.001 0 13.272 10.728 23.999 24.001 23.999s23.999-10.726 23.999-23.999c0-13.275-10.726-24.001-23.999-24.001z" />
<glyph unicode="&#xe99d;" d="M335.451 317.817h-22.726l-26.363-26.363c-1.636-1.636-2.365-3.817-2.365-6.181 0-2.181 1.091-4.364 2.909-5.818l48.182-39.999 10.182 12.362-41.453 34.546 31.635 31.453z" />
<glyph unicode="&#xe99e;" d="M393.272 251.818l-41.453 34.546 31.637 31.453h-22.728l-26.363-26.363c-1.636-1.636-2.365-3.817-2.365-6.181 0-2.181 1.091-4.364 2.909-5.818l48.182-39.999 10.182 12.362z" />
<glyph unicode="&#xe99f;" d="M441.274 251.818l-41.456 34.546 31.637 31.453h-22.726l-26.366-26.363c-1.636-1.636-2.362-3.817-2.362-6.181 0-2.181 1.091-4.364 2.909-5.818l48.182-39.999 10.182 12.362z" />
<glyph unicode="&#xe9a0;" d="M489.456 251.818l-41.453 34.546 31.635 31.453h-22.726l-26.363-26.363c-1.638-1.636-2.365-3.817-2.365-6.181 0-2.181 1.091-4.364 2.909-5.818l48.182-39.999 10.182 12.362z" />
<glyph unicode="&#xe9a1;" d="M235.816 558.364c-48.728 0-88.182-39.454-88.182-88.183v-7.999c0-36.729 22.727-69.637 57.091-82.546-3.091 6.726-5.273 13.817-6.727 21.090-21.273 13.091-34.182 36.364-34.182 61.456v7.999c0 39.82 32.364 72.001 72.182 72.183h392.909v16h-393.090z" />
<glyph unicode="&#xe9a2;" d="M580.543 510.182h-304.728c-22.181 0-39.999-18.001-39.999-40.001v-7.999h16v7.999c0 13.272 10.726 24.001 23.999 24.001h304.728v16z" />
<glyph unicode="&#xe9a3;" d="M117.421 721.444h-32.071c0 3.563 0 7.127 0 10.69 0 103.662 38.874 142.535 142.535 142.535h10.69v-32.070c0-67.704-53.451-121.155-121.155-121.155z" />
<glyph unicode="&#xe9a4;" d="M908.503 721.444c-67.702 0-121.155 53.45-121.155 121.155v32.070h10.691c103.654 0 142.536-38.873 142.536-142.535 0-3.564 0-7.127 0-10.69h-32.072z" />
<glyph unicode="&#xe9a5;" d="M940.575 407.859c0-116.296-38.881-142.536-142.536-142.536h-10.691v32.072c0 67.702 53.453 121.155 121.155 121.155h32.072c0-3.564 0-7.127 0-10.691z" />
<glyph unicode="&#xe9a6;" d="M227.885 265.324c-103.662 0-142.535 32.072-142.535 142.536 0 3.564 0 7.127 0 10.691h32.071c67.704 0 121.155-53.453 121.155-121.155v-32.072h-10.69z" />
<glyph unicode="&#xe9a7;" d="M655.488 151.306l-121.155-121.155c-3.564-3.564-7.127-3.564-10.691-7.127-7.127-3.564-14.254-3.564-24.944 0-3.564 0-7.127 3.564-10.691 7.127l-117.591 121.155c-10.69 10.691-10.69 32.067 0 42.757s32.070 10.691 42.76 0l71.268-71.265v78.392c0 17.818 14.254 32.072 32.070 32.072 17.818 0 32.072-14.254 32.072-32.072v-78.392l71.265 71.265c10.691 10.691 32.072 10.691 42.762 0s7.127-32.067-7.127-42.757z" />
<glyph unicode="&#xe9a8;" d="M908.488 660.867c-99.773 0-181.729 81.957-181.729 181.732v32.070h-427.606v-32.070c0-99.774-81.957-181.732-181.732-181.732h-32.071v-181.732h32.071c99.774 0 181.732-81.955 181.732-181.734v-32.067h181.732c96.211 0-3.564 0 245.874 0v32.067c0 99.779 81.956 181.734 181.729 181.734h32.072v181.732h-32.072zM602.040 507.641c-3.564-32.071-28.508-64.142-67.707-74.832v-17.818c0-10.685-10.691-21.376-21.376-21.376-14.256 0-21.383 10.691-21.383 21.376v14.254c-17.817 0-32.071 7.127-53.451 21.382-10.69 7.127-14.254 21.381-7.127 32.071s21.38 14.254 32.070 7.127c14.254-7.127 21.38-10.69 32.070-14.254v96.211c-14.253 7.127-24.944 14.254-35.634 21.38-17.817 14.254-28.507 39.197-21.38 67.704s24.944 49.887 53.451 60.577h3.563v14.254c0 10.69 10.691 21.38 21.378 21.38 10.691 0 21.381-10.69 21.381-21.38v-10.691c21.381-3.563 39.199-14.253 46.326-24.944s7.127-24.944-3.564-32.070c-10.691-7.127-24.945-7.127-32.072 3.564 0 0-3.564 3.563-10.691 7.127v-71.267c3.564 0 7.127-3.564 10.691-3.564 35.635-17.817 60.58-57.014 53.453-96.211z" />
<glyph unicode="&#xe9a9;" d="M477.326 650.176c0 7.127 3.564 14.254 10.69 21.38v-46.324c-3.563 0-3.563 3.564-7.127 3.564-3.564 3.563-7.127 10.69-3.564 21.38z" />
<glyph unicode="&#xe9aa;" d="M555.73 514.765c-3.564-14.254-10.691-24.944-21.381-32.070v71.267c24.945-10.69 24.945-32.070 21.381-39.197z" />
<glyph unicode="&#xe9ab;" d="M488.004 671.556v-46.324c-3.564 0-3.564 3.564-7.127 3.564-7.127 3.563-7.127 14.254-7.127 21.38 3.564 7.127 7.127 14.254 14.254 21.38z" />
<glyph unicode="&#xe9ac;" d="M477.326 650.176c0 7.127 3.564 14.254 10.69 21.38v-46.324c-3.563 0-3.563 3.564-7.127 3.564-3.564 3.563-7.127 10.69-3.564 21.38z" />
<glyph unicode="&#xe9ad;" d="M555.73 514.765c-3.564-14.254-10.691-24.944-21.381-32.070v71.267c24.945-10.69 24.945-32.070 21.381-39.197z" />
<glyph unicode="&#xe9ae;" d="M698.716 230.221l-233.494-139.515c-7.939-4.741-17.014-7.25-26.262-7.25h-99.889c-27.987 0-50.675 22.692-50.675 50.678h101.35c27.987 0 50.675 22.687 50.675 50.678 0 27.986-22.688 50.673-50.675 50.673h-160.638c-95.269 0-122.443-0.819-210.863-68.419l-18.246-17.736 130.124-213.335 18.356 13.629c28.393 21.094 66.54 32.481 101.911 32.481h213.147c9.087 0 18.010 2.417 25.853 7.009l332.783 194.678c0 0-12.948 22.287-13.097 22.533-21.857 37.704-73.062 46.428-110.362 23.895z" />
<glyph unicode="&#xe9af;" d="M533.878 267.894c99.359 0 180.178 80.522 180.178 179.512s-80.819 180.844-180.178 180.844c-99.355 0-180.178-81.854-180.178-180.844s80.823-179.512 180.178-179.512zM533.878 427.459c-33.117 0-60.059 26.844-60.059 59.84 0 25.97 16.787 47.902 40.039 56.164v43.566h40.038v-43.566c23.255-8.262 40.044-30.194 40.044-56.164h-40.044c0 11.005-8.975 19.946-20.019 19.946s-20.019-8.941-20.019-19.946c0-11.005 8.975-19.946 20.019-19.946 33.121 0 60.063-26.843 60.063-59.836 0-25.969-16.788-47.903-40.044-56.166v-43.566h-40.038v43.566c-23.252 8.264-40.039 30.198-40.039 56.166h40.039c0-11.008 8.975-19.948 20.019-19.948s20.019 8.94 20.019 19.948c0 11.003-8.975 19.942-20.019 19.942z" />
<glyph unicode="&#xe9b0;" d="M333.034 665.768l236.499 141.308c5.97 3.569 12.795 5.453 19.753 5.453h103.388c27.991 0 50.678-22.688 50.678-50.676h-101.35c-27.986 0-50.678-22.688-50.678-50.675s22.692-50.675 50.678-50.675h160.64c95.268 0 111.606-2.772 200.023 64.826l21.335 21.334-122.373 213.332-18.36-13.633c-28.39-21.091-66.54-32.479-101.908-32.479h-213.146c-9.088 0-18.012-2.418-25.856-7.007l-332.784-194.681c0 0 12.953-22.285 13.096-22.532 21.861-37.704 73.065-46.429 110.365-23.893z" />
<glyph unicode="&#xe9b1;" glyph-name="ic_refund_total" d="M392-64c88.484 0 156.992 8.468 211.945 25.779-1.162 6.252-1.946 12.641-1.946 19.22 0 29.389 12.221 55.921 31.749 75.003-19.528 19.077-31.749 45.609-31.749 74.998s12.221 55.921 31.749 74.998c-19.528 19.082-31.749 45.609-31.749 75.003 0 29.389 12.221 55.921 31.749 74.998-19.528 19.077-31.749 45.609-31.749 75.003 0 34.717 17.142 65.319 43.197 84.444-17.843 16.336-36.91 30.977-56.909 43.859 8.125 10.234 13.711 22.617 13.711 36.695 0 33.141-26.86 60-60.001 60h-299.998c-33.141 0-60-26.86-60-60 0-14.047 5.57-26.391 13.648-36.609-116.469-75.032-195.649-210.898-195.649-353.393 0-242.022 224.57-269.998 392-269.998zM391.679 227.21c-49.633 0-90 40.366-90 89.999 0 39.183 25.313 72.238 60.32 84.572v44.216c0 16.58 13.422 30.002 30 30.002s30-13.422 30-30.002v-44.421c34.68-12.508 59.68-45.43 59.68-84.367 0-16.584-13.422-29.998-30-29.998-16.586 0-30 13.414-30 29.998 0 16.558-13.453 30.003-30 30.003-16.554 0-30-13.445-30-30.003 0-16.553 13.445-29.998 30-29.998 49.625 0 90-40.376 90-89.999 0-38.938-25-71.859-59.68-84.378v-26.834c0-16.579-13.422-29.998-30-29.998s-30 13.42-30 29.998v26.639c-35.007 12.329-60.32 45.389-60.32 84.572 0 16.579 13.414 29.998 30 29.998 16.578 0 30-13.42 30-29.998 0-16.558 13.445-30.003 30-30.003 16.547 0 30 13.445 30 30.003 0 16.553-13.453 29.998-30 29.998zM979 25.999h-272c-24.852 0-45-20.147-45-45s20.147-45 45-45h272c24.852 0 45 20.147 45 45s-20.147 45-45 45zM979 176h-272c-24.852 0-45-20.147-45-45s20.147-45 45-45h272c24.852 0 45 20.147 45 45s-20.147 45-45 45zM979 326.001h-272c-24.852 0-45-20.147-45-45s20.147-45 45-45h272c24.852 0 45 20.147 45 45s-20.147 45-45 45zM979 476h-272c-24.852 0-45-20.149-45-44.999 0-24.852 20.147-45 45-45h272c24.852 0 45 20.147 45 45 0 24.85-20.147 44.999-45 44.999zM476.477 900c-12.43 34.844-45.414 60-84.476 60-39.11 0-72.477-25.078-84.875-60h-95.125c-9.64 0-18.695-4.625-24.344-12.453-5.625-7.82-7.18-17.898-4.102-27.039l46.836-144.507h323.224l46.833 144.507c3.077 9.141 1.521 19.219-4.106 27.039-5.647 7.828-14.7 12.453-24.34 12.453h-95.524z" />
<glyph unicode="&#xe9b2;" glyph-name="ic_slider_next" horiz-adv-x="658" d="M14.643 27.538l93.187-91.538 521.214 512-521.214 512-93.187-91.54 428.027-420.46-428.027-420.462z" />
<glyph unicode="&#xe9b3;" horiz-adv-x="2278" d="M1233.779 667.753h-276.841c-12.687 0-22.656-9.969-22.656-22.653v-385.134c0-12.687 9.969-22.656 22.656-22.656h276.841c12.687 0 22.656 9.969 22.656 22.656v385.134c-0.453 12.685-10.422 22.653-22.656 22.653zM1194.813 452.984c-33.528-14.497-62.528-59.356-78.838-96.963-4.984-11.328-18.125-16.765-29.906-11.781-5.437 2.266-9.513 6.344-11.779 11.781-15.859 37.153-45.312 82.465-78.84 96.963-11.328 4.984-16.765 18.125-11.781 29.906 2.266 5.437 6.344 9.513 11.781 11.779 33.528 14.5 62.528 59.356 78.84 96.965 4.982 11.325 18.122 16.763 29.903 11.779 5.437-2.266 9.516-6.344 11.781-11.779 15.857-37.156 45.309-82.465 78.838-96.965 11.328-4.982 16.765-18.122 11.781-29.903-2.266-5.437-6.797-9.516-11.781-11.781z" />
<glyph unicode="&#xe9b4;" horiz-adv-x="2278" d="M1095.137 414.469c26.775 0 48.481 26.575 48.481 59.356s-21.706 59.356-48.481 59.356c-26.778 0-48.484-26.575-48.484-59.356s21.706-59.356 48.484-59.356z" />
<glyph unicode="&#xe9b5;" horiz-adv-x="2278" d="M586.762 520.95l-55.731-56.184c-10.875-10.875-11.328-28.544-0.453-39.872 10.875-10.875 28.547-11.328 39.872-0.453 4.531 4.531 10.875 6.797 17.219 6.797h0.453c5.437-0.453 10.875-2.719 14.5-6.344 10.875-10.875 28.997-10.875 39.872 0.453 10.875 10.875 10.875 28.997-0.453 39.872l-55.278 55.731z" />
<glyph unicode="&#xe9b6;" horiz-adv-x="2278" d="M724.956 667.753h-276.841c-12.687 0-22.656-9.969-22.656-22.653v-385.134c0-12.687 9.969-22.656 22.656-22.656h276.841c12.687 0 22.656 9.969 22.656 22.656v385.134c0 12.685-9.969 22.653-22.656 22.653zM674.209 393.628c-13.594-13.591-32.622-21.747-51.653-21.294-4.531 0-8.609 0.453-13.14 1.359v-9.062c0-12.687-9.966-22.656-22.653-22.656s-22.656 9.969-22.656 22.656v8.156c-4.531-0.906-8.609-1.359-13.138-1.359-40.328 0-73.403 33.075-73.403 73.4 0 19.484 7.703 38.062 21.297 51.653l71.588 72.044c4.078 4.078 9.969 6.797 15.859 6.797s11.781-2.266 15.859-6.797l71.588-71.59c29-28.091 29-74.307 0.453-103.306z" />
<glyph unicode="&#xe9b7;" horiz-adv-x="2278" d="M1578.596 520.95l-55.731-56.184c-10.875-10.875-11.328-28.544-0.453-39.872 10.875-10.875 28.544-11.328 39.872-0.453 4.531 4.531 10.875 6.797 17.219 6.797h0.453c5.437-0.453 10.872-2.719 14.497-6.344 11.328-10.875 29-10.422 39.421 0.906 10.419 10.875 10.419 28.544-0.453 39.419l-54.825 55.731z" />
<glyph unicode="&#xe9b8;" horiz-adv-x="2278" d="M1672.381 810.024h-1151.775c-197.55 0.906-357.947-158.584-358.853-356.134s158.584-357.947 356.134-358.853c0.906 0 1.812 0 2.719 0h1151.775c197.55-0.906 357.947 158.584 358.853 356.134s-158.584 357.946-356.134 358.852c-0.906 0-1.812 0-2.719 0zM792.919 259.963c0-37.606-30.359-67.963-67.965-67.963h-276.844c-37.606 0-67.963 30.356-67.963 67.963v385.134c0 37.606 30.356 67.964 67.963 67.964h276.844c37.606 0 67.965-30.358 67.965-67.964v-385.134zM1301.747 259.963c0-37.606-30.359-67.963-67.965-67.963h-276.841c-37.609 0-67.965 30.356-67.965 67.963v385.134c0 37.606 30.356 67.964 67.965 67.964h276.841c37.606 0 67.965-30.358 67.965-67.964v-385.134zM1784.748 259.963c0-37.606-30.356-67.963-67.963-67.963h-276.844c-37.606 0-67.965 30.356-67.965 67.963v385.134c0 37.606 30.359 67.964 67.965 67.964h276.844c37.606 0 67.963-30.358 67.963-67.964v-385.134z" />
<glyph unicode="&#xe9b9;" horiz-adv-x="2278" d="M1748.956 946.86v-27.639c0-12.687-9.966-22.655-22.653-22.655s-22.656 9.968-22.656 22.655v31.264c-5.891 0-11.781 0.453-18.122 0.453h-513.359v-31.717c0-12.687-9.969-22.655-22.656-22.655s-22.656 9.968-22.656 22.655v31.717h-619.382c-6.797 0-14.047 0-20.844-0.453v-31.264c0-12.687-9.969-22.655-22.656-22.655-12.685 0-22.653 9.968-22.653 22.655v27.186c-272.765-36.248-464.425-286.81-428.177-559.575 29.904-223.378 206.159-399.178 429.537-428.178v34.437c0 12.685 9.969 22.653 22.653 22.653 12.687 0 22.656-9.969 22.656-22.653v-38.062c6.344-0.453 12.687-0.453 19.484-0.453h620.741v38.515c0 12.685 9.969 22.653 22.656 22.653s22.656-9.969 22.656-22.653v-38.515h512c6.341 0 12.685 0 19.482 0.453v38.062c0 12.685 9.969 22.653 22.656 22.653 12.685 0 22.653-9.969 22.653-22.653v-34.437c272.765 35.796 465.331 285.906 429.537 558.669-29.453 224.284-206.612 400.992-430.897 429.537zM1672.384 49.728h-1151.775c-222.469-0.906-403.256 178.972-404.162 401.444-0.906 222.469 178.974 403.256 401.443 404.162 0.906 0 1.812 0 2.719 0h1151.775c222.469 0.906 403.256-178.974 404.163-401.443 0.906-222.472-178.975-403.256-401.444-404.163-0.906 0-1.812 0-2.719 0z" />
<glyph unicode="&#xe9ba;" horiz-adv-x="2278" d="M1716.79 667.753h-276.844c-12.685 0-22.653-9.969-22.653-22.653v-385.134c0-12.687 9.969-22.656 22.653-22.656h276.844c12.687 0 22.653 9.969 22.653 22.656v385.134c0 12.685-9.966 22.653-22.653 22.653zM1666.043 393.628c-13.594-13.591-32.622-21.747-51.653-21.294-4.531 0-8.609 0.453-13.14 1.359v-9.062c0-12.687-9.969-22.656-22.653-22.656-12.687 0-22.656 9.969-22.656 22.656v8.156c-4.531-0.906-8.609-1.359-13.14-1.359-40.325 0-73.4 33.075-73.4 73.4 0 19.484 7.703 38.062 21.294 51.653l71.59 72.044c4.078 4.078 9.969 6.797 15.859 6.797 5.888 0 11.779-2.266 15.857-6.797l71.59-71.59c28.997-28.091 28.997-74.307 0.453-103.306z" />
<glyph unicode="&#xe9bb;" d="M444.833 564.58c-10.564 0-19.924-6.8-23.189-16.847l-41.504-127.734c-3.265-10.045 0.312-21.051 8.858-27.258l108.656-78.946c8.546-6.21 20.117-6.21 28.662 0l108.659 78.946c8.546 6.207 12.12 17.213 8.855 27.258l-41.504 127.734c-3.262 10.047-12.624 16.847-23.186 16.847h-134.307z" />
<glyph unicode="&#xe9bc;" d="M953.356 188.15c37.378 63.244 60.613 133.851 68.028 207.877l-95.161-68.81c-8.56-6.188-12.161-17.184-8.919-27.238l36.052-111.828z" />
<glyph unicode="&#xe9bd;" d="M659.339 599.359c-4.623-6.322-5.929-14.48-3.508-21.931l48.828-150.279c2.399-7.387 8.18-13.19 15.557-15.621l139.391-45.926c7.426-2.448 15.577-1.185 21.916 3.399l141.917 102.617c-4.157 92.138-32.605 179.856-82.247 255.782l-175.548 0.299c-7.792 0.013-15.119-3.697-19.719-9.985l-86.587-118.354z" />
<glyph unicode="&#xe9be;" d="M481.955 238.548c0 7.804-3.738 15.138-10.050 19.724l-127.82 92.867c-6.307 4.581-14.426 5.871-21.843 3.469l-139.572-45.205c-7.428-2.404-13.254-8.224-15.671-15.648l-54.183-166.439c11.559-14.331 23.922-28.148 37.128-41.355 52.057-52.058 113.36-91.499 180.196-116.846l141.765 102.995c6.312 4.588 10.050 11.922 10.050 19.727v146.71z" />
<glyph unicode="&#xe9bf;" d="M307.173 917.521c-57.922-25.285-111.19-61.448-157.224-107.482-6.97-6.971-13.688-14.125-20.203-21.417l117.596-0.134c10.562-0.012 19.929 6.777 23.206 16.816l36.625 112.217z" />
<glyph unicode="&#xe9c0;" d="M2.439 397.475c7.207-74.062 30.256-144.728 67.441-208.062l36.371 111.714c3.27 10.045-0.299 21.051-8.841 27.265l-94.971 69.083z" />
<glyph unicode="&#xe9c1;" d="M413.36 634.729c4.584-6.337 11.932-10.091 19.753-10.091h157.935c7.778 0 15.087 3.711 19.678 9.986l86.66 118.457c4.615 6.311 5.927 14.454 3.521 21.894l-54.023 167.143c-43.422 11.781-88.686 17.882-134.895 17.882-45.709 0-90.497-5.981-133.495-17.514l-54.523-167.059c-2.419-7.413-1.146-15.536 3.423-21.854l85.967-118.844z" />
<glyph unicode="&#xe9c2;" d="M303.721 411.731c7.434 2.406 13.261 8.231 15.677 15.66l48.808 150.218c2.406 7.407 1.131 15.516-3.433 21.823l-86.001 118.895c-4.581 6.33-11.915 10.083-19.727 10.092l-175.465 0.2c-49.873-75.802-78.576-163.444-82.988-255.538l141.701-103.075c6.309-4.588 14.433-5.883 21.854-3.479l139.573 45.205z" />
<glyph unicode="&#xe9c3;" d="M701.637 354.416c-7.446 2.455-15.618 1.178-21.96-3.43l-127.612-92.716c-6.315-4.586-10.050-11.92-10.050-19.724v-146.712c0-7.804 3.735-15.136 10.050-19.724l141.763-102.997c66.836 25.346 128.141 64.788 180.197 116.846 12.856 12.856 24.92 26.29 36.215 40.216l-53.736 166.671c-2.389 7.414-8.177 13.239-15.575 15.675l-139.293 45.897z" />
<glyph unicode="&#xe9c4;" d="M895.2 787.533c-6.814 7.671-13.848 15.19-21.165 22.505-45.683 45.682-98.484 81.654-155.892 106.911l36.306-112.333c3.25-10.049 12.598-16.865 23.159-16.883l117.592-0.2z" />
<glyph unicode="&#xe9c5;" d="M402.749-52.358c35.491-7.673 72.053-11.642 109.229-11.642s73.735 3.967 109.227 11.642l-109.227 79.358-109.229-79.358z" />
<glyph unicode="&#xe9c6;" d="M948.529 427.883c-3.658-20.115-5.485-40.229-5.485-62.171 0-10.971 0-21.944 1.827-32.915 18.285 1.829 38.4 1.829 58.515 1.829-12.8 34.742-31.085 67.656-54.856 93.256z" />
<glyph unicode="&#xe9c7;" d="M932.073 444.342c-45.715 40.229-104.229 65.829-170.058 65.829-14.629 0-29.256-1.829-42.056-3.658 65.827-34.742 117.027-98.742 149.942-179.2 18.285 1.829 36.573 3.658 56.685 5.488-1.827 10.971-1.827 21.942-1.827 32.912 0 27.429 1.827 53.029 7.315 78.629z" />
<glyph unicode="&#xe9c8;" d="M888.185 128c0-29.258-3.658-56.688-9.144-82.288l-1.827-10.971c-1.829 0-1.829-1.829-3.658-1.829-12.8-5.485-27.429-10.971-40.229-16.456-16.456-5.485-34.742-7.315-51.2-9.144-3.656 0-7.312 0-10.971 0 3.658 7.315 7.315 14.629 10.971 21.944 18.288 38.4 27.429 85.944 27.429 135.315 0 45.715-9.142 89.6-27.429 128 23.773 5.485 49.373 10.971 76.8 14.629 18.288-54.858 29.258-115.2 29.258-179.2z" />
<glyph unicode="&#xe9c9;" d="M1007.041 316.342c-21.942 0-42.056 0-62.171-1.829 7.315-58.515 29.258-107.885 56.685-131.656 7.315 23.771 10.973 47.542 10.973 74.971 1.827 20.115 0 40.229-5.488 58.515z" />
<glyph unicode="&#xe9ca;" d="M754.7 303.544c-36.571-10.971-69.485-21.944-96.915-34.744-7.315-3.656-14.627-5.485-20.115-9.142-16.456-7.315-31.085-16.458-45.712-25.6-27.429-16.458-49.373-32.915-69.488-49.373-7.312 23.773-10.971 49.373-10.971 74.973 0 5.485 0 12.8 0 18.285 0 1.829 0 1.829 0 3.656 0 7.315 1.829 12.8 1.829 18.285 1.829 9.144 3.656 16.458 5.485 25.6 0 3.658 1.829 9.144 3.656 12.8 10.973 31.088 25.6 58.515 47.544 84.115 1.829 0 3.656 0 3.656 0 76.8-3.656 142.629-49.371 181.029-118.856z" />
<glyph unicode="&#xe9cb;" d="M692.529 499.2c-1.829 0-1.829 0 0 0-7.315-1.829-12.8-3.658-18.285-5.488 0 0-1.829 0-1.829-1.827-5.485-1.829-10.971-5.485-16.456-7.315s-10.973-5.485-16.458-9.144c-1.827 0-1.827-1.827-3.656-1.827-5.485-3.658-9.144-5.488-14.629-9.144-1.829 0-1.829-1.829-3.656-1.829-10.973-7.315-20.115-14.627-29.258-23.771 0 0 0 0-1.827-1.829 78.627-5.485 148.112-54.856 186.512-129.829 23.773 5.488 51.2 10.973 78.629 16.458-34.742 82.285-89.6 146.285-159.085 175.544z" />
<glyph unicode="&#xe9cc;" d="M928.414 314.515c-18.285-1.829-34.742-3.658-51.2-5.485 20.115-54.858 31.085-117.029 31.085-181.029 0-27.429-3.656-54.856-9.142-82.285 43.885 29.256 78.627 71.315 98.742 120.685-36.571 25.6-62.171 80.456-69.485 148.115z" />
<glyph unicode="&#xe9cd;" d="M791.27 162.742c0-29.256-3.656-56.685-9.142-82.285-5.485-21.944-12.8-42.058-23.771-60.344-1.829-5.485-5.488-10.971-9.144-14.627-100.571 5.485-184.685 69.485-219.429 159.085 20.115 18.285 45.715 36.571 74.971 53.027 20.115 12.8 42.058 23.773 67.658 34.744 27.429 12.8 58.515 23.771 93.256 32.915 14.629-34.744 25.6-76.8 25.6-122.515z" />
<glyph unicode="&#xe9ce;" d="M780.302 27.429v-20.115c-3.656 0-7.315 0-10.971 0 3.656 5.485 7.315 12.8 10.971 20.115z" />
<glyph unicode="&#xe9cf;" d="M762.017-9.142c5.485 0 12.8 0 18.285 0v-3.658c0-27.427-21.944-49.371-49.371-49.371h-643.658c-27.429 0-49.371 21.944-49.371 49.371v173.715c0 27.429 21.943 49.371 49.371 49.371h32.914c14.629 32.915 40.229 62.173 78.629 85.944 36.571 23.771 82.286 40.229 131.656 47.544v287.085c-51.2 27.427-87.771 84.115-87.771 148.114 0 91.429 74.971 166.4 166.4 166.4s166.4-74.971 166.4-166.4c0-65.828-38.4-122.514-93.256-149.943v-283.429c7.312-1.827 16.456-1.827 23.771-3.656-7.315-25.6-12.8-53.029-12.8-80.458 1.829-149.942 120.685-270.627 268.8-270.627z" />
<glyph unicode="&#xe9d0;" glyph-name="ic_total_bet" d="M527.084 267.93v3.988c-20.391 0.22-39.894 1.331-58.732 2.883-10.194-26.373-24.6-50.975-42.551-72.914 33.908-5.54 68.26-8.643 102.609-9.088l-1.326 75.131zM437.365 414.648c-16.4 78.453-74.244 142.281-151.147 166.438-21.276 6.427-43.216 9.751-65.378 9.751-54.963-0.221-108.152-20.611-148.709-57.4-90.2-82-96.628-221.844-14.627-312.043 82-90.204 221.844-96.63 312.045-14.628 46.097 41.887 72.471 101.059 72.249 163.333 0 14.853-1.551 29.921-4.432 44.549zM220.839 399.8c37.454 0 70.476-24.822 80.671-60.948 12.411-44.544-13.298-90.644-58.065-103.276v-19.502c0-12.191-9.973-22.164-22.162-22.164s-22.162 9.974-22.162 22.164v19.282c-36.568 9.969-61.833 42.993-62.055 80.891 0 12.191 9.973 22.164 22.162 22.164s22.162-9.974 22.162-22.164c0-21.719 17.73-39.229 39.449-39.229s39.227 17.731 39.227 39.45c0 21.719-17.73 39.229-39.449 39.229-37.898 0-70.92 25.487-80.671 62.054-11.746 44.323 14.849 90.421 59.395 102.389v9.53c0 12.189 9.973 22.162 22.162 22.162s22.162-9.973 22.162-22.162v-9.973c36.125-10.194 60.946-43.216 60.946-80.672 0-12.186-9.973-22.159-22.162-22.159s-22.162 9.974-22.162 22.159c0 21.72-17.73 39.45-39.449 39.45s-39.227-17.508-39.449-39.45c0-21.719 17.73-39.224 39.449-39.224zM526.484 316.467l-1.331 78.459c-13.741 0.22-27.26 0.66-40.114 1.551 0.665-8.868 1.108-17.51 1.108-26.153 0-17.29-1.773-34.796-5.097-51.86 14.627-1.331 29.919-1.997 45.434-1.997zM769.116 683.25c-15.293-7.978-31.473-14.406-48.092-19.281-49.869-15.070-115.246-23.27-183.506-23.27-65.379 0-127.655 7.535-175.748 21.497-16.622 4.432-32.579 10.638-47.87 18.395l1.551-62.498c25.043-9.308 48.314-22.605 69.368-39.227 0.665-0.222 1.108-0.222 1.773-0.443 42.552-10.86 96.184-16.622 150.926-16.622 63.386 0 125.66 7.978 170.65 21.497 48.092 14.627 58.732 29.919 58.732 32.8 0 3.103-0.225 5.984 2.217 9.086v58.065zM707.963 771.24c-44.989 13.741-107.264 21.497-170.65 21.497-63.828 0-123.666-7.757-168.435-21.497-46.762-14.183-56.957-28.146-57.179-32.578 0 0 0.222 0 0.222-0.443 1.108-4.876 14.406-19.946 62.054-33.687 44.103-12.854 102.168-19.946 163.337-19.946 63.386 0 125.44 7.757 170.429 21.276 48.092 14.406 58.952 29.698 58.952 32.8 0 2.881-10.639 17.951-58.732 32.578zM1023.575 158.013v66.488c-14.848-7.537-30.362-13.962-46.541-18.842-49.644-15.068-114.58-23.27-183.060-23.27-60.723 0-119.9 6.871-166.441 19.062-19.057 4.874-37.453 11.525-55.183 20.168l1.111-64.271c0-0.22 0-0.22 0-0.445 0-3.323 9.748-18.171 56.509-32.579 44.329-13.517 104.166-21.053 168.212-21.053 63.831 0 123.889 7.757 168.658 21.719 46.761 14.628 56.955 29.921 56.955 33.024h-0.22zM768.691 559.587c-15.293-7.757-31.247-14.184-47.872-19.060-49.864-15.070-115.241-23.27-183.726-23.27-33.684 0-67.15 2.216-100.393 6.427 17.951-24.822 31.249-52.747 39.67-82.443 19.060-1.331 39.669-2.217 60.948-2.217 0.666 0 1.551 0 2.217 0 36.342 39.891 134.083 59.838 229.156 62.497v58.065zM975.478 328.212c-49.423-14.628-113.695-22.605-181.069-22.605-65.377 0-127.652 7.532-175.744 21.494-16.625 4.654-32.804 10.86-48.317 18.616l0.891-50.97 0.22-18.616c17.285-21.499 99.953-49.203 222.73-49.203 64.051 0 124.554 7.537 169.984 21.279 47.872 14.628 58.286 29.696 58.286 32.799 0 2.437 1.331 5.1 1.331 7.316h0.22v58.726c-15.514-7.757-31.688-14.403-48.532-18.836zM965.012 435.697c-45.21 13.74-107.264 21.053-170.65 21.053h-3.768c-58.952 0-115.021-6.649-158.019-18.836-45.875-12.856-61.609-27.484-63.606-33.464-0.22-0.445-0.22-0.666-0.22-0.891 0 0 0 0 0.445-0.886 1.326-4.654 14.403-19.722 62.054-33.684 44.099-12.631 102.164-19.727 163.333-19.727 63.165 0 123.003 7.316 168.433 20.833 49.203 14.628 60.283 29.921 60.503 33.244v0.22c-0.22 3.328-11.3 17.956-58.506 32.138z" />
<glyph unicode="&#xe9d1;" glyph-name="ic_user" d="M511.445 448.563c89.165 0 161.448 72.28 161.448 161.445s-72.283 161.447-161.448 161.447c-89.162 0-161.445-72.282-161.445-161.447s72.283-161.445 161.445-161.445zM835.453 51.157c-88.061-72.257-200.96-115.157-324.022-115.157-123.059 0-235.96 42.9-324.021 115.157 4.516 204.348 147.899 336.441 324.021 336.441 176.125 0 319.508-132.093 324.022-336.441zM1024 448.566c0-130.964-49.675-250.638-129.835-340.958-9.031 86.932-47.417 165.962-110.643 229.185-41.771 41.774-91.446 73.387-145.638 91.449 57.577 38.386 95.963 106.126 95.963 181.769 0 121.932-99.351 222.413-222.413 222.413-123.059 0-221.281-100.481-221.281-222.413 0-75.642 38.386-143.383 95.963-182.898-54.192-19.191-103.867-49.675-145.64-91.449-62.095-62.094-100.481-142.254-110.641-229.185-80.159 90.32-129.835 209.994-129.835 342.087 0 282.248 229.186 511.434 511.434 511.434 282.251 0 512.566-229.186 512.566-511.434z" />
<glyph unicode="&#xe9d2;" horiz-adv-x="1138" d="M885.572 275.718c6.303 0.031 11.423-5.072 11.423-11.378 0-33.647 0-67.291 0-100.938 0-31.42-25.466-56.889-56.886-56.889-166.71 0-363.782 0-530.492 0-31.42 0-56.887 25.347-56.888 56.767 0 103.637-0.001 295.396-0.001 424.021 0 31.42 25.47 56.812 56.888 56.812h530.489c31.42 0 56.889-25.469 56.889-56.886 0-33.835 0-70.537 0-100.983 0-6.3-5.111-11.403-11.415-11.378-11.836 0.048-38.906 0.003-105.193 0.003-37.703 0-68.281-30.564-68.281-68.267v-62.581c0-37.7 30.566-68.264 68.27-68.264 67.274 0 93.605-0.097 105.196-0.040zM809.682 666.869c7.524 0 9.853 10.156 3.106 13.487l-147.47 72.81c-6.986 2.058-14.376-3.008-14.367-10.92v-64c0-6.283 5.094-11.377 11.378-11.377 21.717 0 101.339 0 147.354 0zM582.684 787.757h-209.067c-31.417 0-57.003-25.471-57.247-56.889-0.176-22.632-0.353-44.62-0.353-52.623 0-6.283 5.094-11.377 11.378-11.377h289.422c6.283 0 11.378 5.094 11.378 11.377v64c0 25.102-20.423 45.511-45.511 45.511z" />
<glyph unicode="&#xe9d3;" horiz-adv-x="1138" d="M931.132 406.599v-62.578c0-25.156-20.486-45.511-45.483-45.511h-109.54c-25.088 0-45.511 20.409-45.511 45.511v62.578c0 25.102 20.423 45.511 45.511 45.511h109.511c25.088 0 45.511-20.409 45.511-45.511zM818.77 375.313c0 6.283-5.094 11.378-11.378 11.378h-17.067c-6.283 0-11.378-5.094-11.378-11.378s5.094-11.378 11.378-11.378h17.067c6.283 0 11.378 5.094 11.378 11.378z" />
<glyph unicode="&#xe9d4;" horiz-adv-x="1138" d="M68.924 772.885h-68.924l91.907-93.569 91.915 93.569h-68.924c0.221 77.408 61.8 140.109 137.832 140.342 22.382-0.434 44.378-6.031 64.329-16.379l34.449 35.073c-30.066 17.714-64.051 27.379-98.778 28.078-101.392-0.281-183.521-83.888-183.805-187.115z" />
<glyph unicode="&#xe9d5;" horiz-adv-x="1138" d="M1068.854 123.113h68.924l-91.907 93.571-91.915-93.571h68.924c-0.219-77.406-61.798-140.109-137.83-140.342-22.383 0.435-44.379 6.033-64.33 16.381l-34.449-35.075c30.066-17.712 64.051-27.378 98.779-28.078 101.39 0.282 183.521 83.888 183.805 187.113z" />
<glyph unicode="&#xe9d6;" d="M651.489 161.244l-121.155-121.155c-3.564-3.564-7.127-3.564-10.691-7.127-7.127-3.564-14.255-3.564-24.945 0-3.564 0-7.127 3.564-10.69 7.127l-117.592 121.155c-10.69 10.691-10.69 32.072 0 42.762s32.071 10.691 42.761 0l71.267-71.27v103.992c0 17.818 14.254 32.072 32.072 32.072s32.072-14.254 32.072-32.072v-103.992l71.265 71.27c10.691 10.691 32.072 10.691 42.762 0s7.127-32.072-7.127-42.762z" />
<glyph unicode="&#xe9d7;" glyph-name="ic_gamebai" horiz-adv-x="1092" d="M508.839 808.533l-99.277 103.936c-11.803 12.365-27.723 19.39-44.814 19.78-17.128 0.405-33.312-5.897-45.672-17.705l-299.279-285.86c-12.363-11.807-19.388-27.723-19.778-44.814-0.39-17.094 5.897-33.314 17.705-45.67l193.476-202.564v344.897c0 70.579 57.421 128 128 128h169.639zM1043.992 801.156l-401.169 101.728c-16.572 4.209-33.785 1.702-48.476-7.044s-25.091-22.69-29.293-39.257l-12.182-48.049h200.195c70.577 0 128-57.421 128-128v-636.812c6.775 1.44 13.343 3.99 19.47 7.636 14.688 8.748 25.095 22.688 29.297 39.26l160.461 632.771c8.677 34.208-12.097 69.094-46.302 77.768v0zM753.067 744.533h-413.867c-35.289 0-64-28.711-64-64v-652.8c0-35.29 28.711-64 64-64h413.867c35.29 0 64 28.71 64 64v652.8c0 35.289-28.71 64-64 64zM426.667 625.065c17.674 0 32-14.327 32-32.001 0-17.671-14.326-32-32-32s-32 14.329-32 32c0 17.674 14.326 32.001 32 32.001zM546.133 202.667c-7.632 0-15.261 2.717-21.337 8.151l-95.42 85.357c-0.215 0.191-0.427 0.386-0.635 0.584-23.945 22.607-35.461 56.798-30.812 91.46 4.42 32.966 23.197 61.256 50.227 75.684 13.131 6.991 26.999 10.53 41.25 10.53 21.613 0 41.37-8.236 56.726-22.033 15.357 13.797 35.113 22.033 56.726 22.033 14.251 0 28.119-3.536 41.223-10.516 27.057-14.438 45.831-42.732 50.255-75.697 4.649-34.659-6.871-68.85-30.809-91.46-0.212-0.198-0.423-0.393-0.638-0.58l-95.42-85.361c-6.076-5.434-13.705-8.151-21.337-8.151v0zM665.6 83.203c-17.674 0-32 14.326-32 32s14.326 32 32 32c17.674 0 32-14.326 32-32 0-17.671-14.326-32-32-32z" />
<glyph unicode="&#xe9d8;" glyph-name="icon-game-card" d="M477.034 785.999l-93.069 97.44c-11.069 11.592-25.99 18.178-42.016 18.544-16.058 0.38-31.229-5.528-42.817-16.598l-280.574-267.993c-11.59-11.072-18.176-25.99-18.542-42.016-0.366-16.022 5.528-31.229 16.598-42.816l181.384-189.901v323.34c0 66.168 53.832 120 120 120h159.036zM978.739 779.082l-376.096 95.37c-15.536 3.946-31.674 1.596-45.446-6.604s-23.523-21.272-27.462-36.804l-11.421-45.046h187.683c66.166 0 120-53.832 120-120v-597.012c6.352 1.35 12.509 3.741 18.253 7.158 13.77 8.202 23.526 21.27 27.466 36.806l150.432 593.223c8.134 32.070-11.341 64.776-43.408 72.908zM706 726h-388c-33.084 0-60-26.916-60-60v-612c0-33.085 26.916-60 60-60h388c33.085 0 60 26.915 60 60v612c0 33.084-26.915 60-60 60zM400 613.997c16.566 0 30-13.43 30-30 0-16.566-13.434-30-30-30-16.57 0-30 13.434-30 30 0 16.57 13.43 30 30 30zM512 218c-7.155 0-14.307 2.547-20.003 7.642l-89.456 80.022c-0.202 0.179-0.4 0.362-0.595 0.547-22.448 21.194-33.245 53.248-28.886 85.744 4.144 30.906 21.747 57.43 47.088 70.954 12.31 6.554 25.312 9.872 38.672 9.872 20.262 0 38.784-7.722 53.181-20.656 14.397 12.934 32.918 20.656 53.181 20.656 13.36 0 26.362-3.315 38.646-9.859 25.366-13.536 42.966-40.061 47.114-70.966 4.358-32.493-6.442-64.547-28.883-85.744-0.198-0.186-0.397-0.368-0.598-0.544l-89.456-80.026c-5.696-5.094-12.848-7.642-20.003-7.642zM624 106.003c-16.566 0-30 13.43-30 30s13.434 30 30 30c16.566 0 30-13.43 30-30 0-16.566-13.434-30-30-30z" />
<glyph unicode="&#xe9d9;" glyph-name="telegram" d="M401.809 298.689l-16.939-262.072c24.235 0 34.732 11.452 47.318 25.199l113.624 119.447 235.441-189.659c43.18-26.47 73.599-12.527 85.247 43.699l154.547 796.547 0.043 0.047c13.696 70.212-23.083 97.668-65.152 80.443l-908.399-382.552c-61.996-26.47-61.057-64.486-10.539-81.71l232.24-79.458 539.448 371.288c25.387 18.492 48.468 8.26 29.483-10.231l-436.362-430.987z" />
<glyph unicode="&#xe9da;" glyph-name="evolution-gaming" d="M665.139 506.761c33.442-1.152 70.127-0.175 110.635 3.29-5.833 88.166-32.371 161.41-72.141 218.175 1.89-15.546 2.957-31.358 2.957-47.482 0-63.117-15.074-122.414-41.451-173.983zM651.132 481.758c-59.652-97.092-161.66-161.101-277.555-161.101-8.258 0-16.433 0.444-24.527 1.067-29.58-49.037-48.683-103.492-69.758-154.705 207.881-120.013 476.314 6.532 496.486 312.077-46.259 3.951-87.548 4.663-124.646 2.662zM279.292 822.082c57.804-140.625 101.103-305.683 385.847-315.321 26.377 51.569 41.451 110.866 41.451 173.983 0 16.124-1.067 31.936-2.957 47.482-98.022 139.781-276.484 179.226-424.341 93.856zM651.166 481.754c-171.354-9.148-251.837-76.706-302.081-160.034 8.093-0.623 16.269-1.067 24.527-1.067 115.895 0 217.902 64.051 277.554 161.101z" />
<glyph unicode="&#xe9db;" glyph-name="betsoft-gaming" horiz-adv-x="805" d="M481.122 887.766c-20.047 20.162-44.477 35.734-72.197 35.734h-152.068v-456.047h255.204c0 0 26.47 13.892 26.47 75.668v199.131c0 54.591-19.86 107.666-57.41 145.515zM424.344 522.884h-79.713v308.942h62.756c1.537-0.69 5.935-3.136 12.804-10.081 19.444-19.487 30.58-48.485 30.58-79.493v-191.78c0-3.623-0.683-7.21-2.011-10.557s-3.275-6.388-5.729-8.95c-2.454-2.562-5.367-4.594-8.574-5.98s-6.643-2.1-10.113-2.1zM538.532 153.702v199.202c0 61.776-26.47 75.667-26.47 75.667h-255.204v-456.044h152.068c27.72 0 52.15 15.572 72.197 35.738 37.55 37.903 57.41 90.909 57.41 145.437zM450.771 345.554v-191.852c0-30.932-11.122-59.875-30.58-79.419-6.869-6.949-11.266-9.392-12.804-10.079h-62.756v308.996h79.713c3.476 0 6.917-0.715 10.127-2.106s6.126-3.427 8.581-5.996c2.455-2.568 4.4-5.617 5.725-8.97s2.003-6.948 1.995-10.576zM804.506 611.286l-160.863-169.878 160.863-164.657v334.535zM0 611.286l160.862-169.878-160.862-164.657v334.535z" />
<glyph unicode="&#xe9dc;" glyph-name="ic_star" horiz-adv-x="1117" d="M558.545 960l125.401-385.946h405.804l-328.301-238.527 125.401-385.946-328.305 238.527-328.305-238.527 125.401 385.946-328.305 238.527h405.807l125.401 385.946z" />
<glyph unicode="&#xe9dd;" glyph-name="ic_facebook" d="M748.066 919.010v-150.857h-89.713c-32.765 0-54.859-6.857-66.287-20.571s-17.142-34.286-17.142-61.714v-108h167.427l-22.286-169.144h-145.142v-433.712h-174.858v433.712h-145.715v169.144h145.715v124.571c0 70.857 19.811 125.714 59.43 164.571 39.619 39.238 92.378 58.857 158.283 58.857 56.003 0 99.43-2.286 130.287-6.857z" />
<glyph unicode="&#xe9de;" glyph-name="ic_instagram" d="M507.733 673.733c40.001 0 78.001-12 113.999-32 36-20 64-48.001 84.002-84.001 19.999-35.997 32-73.998 32-113.999 0-42.001-12.001-80.002-32-115.999-20.002-36-48.002-64-84.002-84.002-35.997-19.999-73.998-30-113.999-30-42.001 0-80.002 10.001-115.999 30-36 20.002-64.001 48.002-84.001 84.002-20 35.997-30 73.998-30 115.999 0 40.001 10 78.001 30 113.999 20 36 48.001 64.001 84.001 84.001 35.997 20 73.998 32 115.999 32zM507.733 293.734c40.001 0 76.001 13.998 106.001 43.998 28 28 43.998 64 43.998 106.001 0 40.001-15.998 76.001-43.998 106.001-30 28-66 43.998-106.001 43.998-42.001 0-78.001-15.998-106.001-43.998-30-30-43.998-66-43.998-106.001 0-42.001 13.998-78.001 43.998-106.001 28-30 64-43.998 106.001-43.998zM801.734 683.733c0 14-6.001 26-16.002 38-11.998 10-23.999 16-38.001 16-15.998 0-28-6-37.997-16-12.001-12-16.002-24-16.002-38 0-16 4-28 16.002-38 9.998-12 21.999-16 37.997-16 14.001 0 26.003 4 36 16 10.001 10 16.002 22 18.002 38zM953.733 629.733c0-38.001 2-100.001 2-186 0-87.999-2-149.999-4-188s-8.001-70.001-15.998-98c-12.001-34-32-64-56.003-87.999-23.999-24.003-53.999-42.001-85.999-54.002-28-9.998-62-15.998-100-17.999s-100-2-185.999-2c-87.999 0-149.999 0-188 2s-70 8.001-98 19.999c-34 10.001-64 28-88 52.002-24 23.999-42 53.999-54 87.999-10 28-16 60-18 98s-2 100-2 188c0 85.999 0 147.999 2 186s8 72 18 100c12 32 30 62 54 86s54 44 88 56c28 8 60 14 98 16s100.001 4 188 4c85.999 0 147.999-2 185.999-4s72.001-8 100-16c32-12 62-32 85.999-56 24.003-24 44.001-54 56.003-86 7.997-28 13.998-62 17.999-100zM857.733 179.732c8.001 22.002 12.001 57.999 16.002 108.001 0 28 1.997 70.001 1.997 124v64c0 53.999-1.997 96-1.997 124-4 50.001-8.001 86-16.002 108.001-15.998 40-46.001 70-85.999 86-22.002 8-57.999 12-108.001 16-30 0-72.001 2-124 2h-64c-53.999 0-96-2-124-2-50.001-4-86-8-108.001-16-42-16-70-46-86-86-8-22-14-58-16-108.001-2-30-2-72.001-2-124v-64c0-53.999 0-96 2-124 2-50.002 8-85.999 16-108.001 16-41.998 46-70.001 86-85.999 22-8.001 58-14.001 108.001-16.002 28-1.997 70.001-1.997 124-1.997h64c53.999 0 96 0 124 1.997 50.002 2 85.999 8.001 108.001 16.002 39.997 15.998 70.001 46.001 85.999 85.999z" />
<glyph unicode="&#xe9df;" glyph-name="ic_twiter" d="M964.581 736.61c-25.525-37.333-56.381-69.143-92.573-95.429 0.382-5.333 0.573-13.334 0.573-23.999 0-49.524-7.24-99.048-21.716-148.572-14.476-49.142-36.57-96.382-66.287-141.715-29.331-45.332-64.379-85.524-105.141-120.573-40.762-34.666-89.904-62.474-147.429-83.429-57.525-20.569-119.047-30.857-184.573-30.857-103.238 0-197.714 27.621-283.428 82.859 13.334-1.526 28.191-2.287 44.572-2.287 85.714 0 162.095 26.286 229.143 78.858-40 0.761-75.81 12.954-107.429 36.57-31.619 23.999-53.333 54.477-65.143 91.43 12.572-1.905 24.191-2.857 34.857-2.857 16.381 0 32.571 2.096 48.571 6.284-42.667 8.762-78.095 29.908-106.286 63.43-27.809 33.905-41.714 73.144-41.714 117.716v2.284c25.905-14.476 53.714-22.286 83.429-23.429-25.143 16.763-45.143 38.666-60 65.717-14.857 27.046-22.286 56.379-22.286 87.998 0 33.524 8.381 64.571 25.143 93.143 46.095-56.762 102.095-102.286 168-136.572 66.286-33.905 137.143-52.762 212.571-56.571-3.048 14.476-4.57 28.571-4.57 42.285 0 51.048 17.903 94.476 53.712 130.286 36.192 36.191 79.811 54.286 130.86 54.286 53.333 0 98.284-19.429 134.854-58.286 41.527 8 80.572 22.857 117.146 44.571-14.097-43.809-41.144-77.714-81.145-101.714 35.43 3.81 70.857 13.334 106.288 28.572z" />
</font>
</defs>
</svg>
