<?xml version="1.0" standalone="no"?>
<!DOCTYPE svg PUBLIC "-//W3C//DTD SVG 1.1//EN" "http://www.w3.org/Graphics/SVG/1.1/DTD/svg11.dtd" >
<svg xmlns="http://www.w3.org/2000/svg" xmlns:xlink="http://www.w3.org/1999/xlink" version="1.1">
<metadata>
Created by FontForge 20170731 at Mon Jul  3 13:38:40 2017
 By Aleksey,,,
Typeface (c) Franco Fernandez. 2016. All Rights Reserved
</metadata>
<defs>
<font id="SVN-JusticeLeague" horiz-adv-x="686" >
  <font-face 
    font-family="SVN-Justice League"
    font-weight="400"
    font-stretch="normal"
    units-per-em="2048"
    panose-1="2 0 5 0 0 0 0 0 0 0"
    ascent="1638"
    descent="-410"
    x-height="1434"
    cap-height="1434"
    bbox="-49 -328 965 1874"
    underline-thickness="150"
    underline-position="-442"
    unicode-range="U+001D-F002"
  />
<missing-glyph horiz-adv-x="1024" 
d="M924 0h-824v1434h824v-1434zM150 1384v-1334h724v1334h-724zM325 1103v45q31 28 58 43q53 30 112 30q93 0 148.5 -47.5t55.5 -127.5q0 -48 -23 -99q-22 -49 -87 -129q-57 -73 -76 -98t-39 -64t-20 -69q0 -39 24 -133h-32q-35 99 -35 148q0 76 81 218q82 142 82 217
q0 57 -33 90t-91 33q-37 0 -69 -17q-29 -17 -56 -40zM389 334l57 58q10 10 20 10q9 0 22 -11l56 -60q9 -10 9 -20q0 -12 -10 -22l-56 -62q-14 -14 -21 -14q-11 0 -20 10l-61 71q-7 8 -7 18q0 9 11 22z" />
    <glyph glyph-name=".notdef" horiz-adv-x="1024" 
d="M924 0h-824v1434h824v-1434zM150 1384v-1334h724v1334h-724zM325 1103v45q31 28 58 43q53 30 112 30q93 0 148.5 -47.5t55.5 -127.5q0 -48 -23 -99q-22 -49 -87 -129q-57 -73 -76 -98t-39 -64t-20 -69q0 -39 24 -133h-32q-35 99 -35 148q0 76 81 218q82 142 82 217
q0 57 -33 90t-91 33q-37 0 -69 -17q-29 -17 -56 -40zM389 334l57 58q10 10 20 10q9 0 22 -11l56 -60q9 -10 9 -20q0 -12 -10 -22l-56 -62q-14 -14 -21 -14q-11 0 -20 10l-61 71q-7 8 -7 18q0 9 11 22z" />
    <glyph glyph-name="uni0000" horiz-adv-x="0" 
 />
    <glyph glyph-name="uni0000" horiz-adv-x="0" 
 />
    <glyph glyph-name="nonmarkingreturn" horiz-adv-x="682" 
 />
    <glyph glyph-name="space" unicode=" " horiz-adv-x="508" 
 />
    <glyph glyph-name="space" unicode="&#xa0;" horiz-adv-x="508" 
 />
    <glyph glyph-name="exclam" unicode="!" horiz-adv-x="303" 
d="M262 1419l-41 -1009q0 -15 -14 -15h-111q-14 0 -14 15l-41 1009q0 15 14 15h193q14 0 14 -15zM262 207v-193q0 -14 -14 -14h-193q-14 0 -14 14v193q0 14 14 14h193q14 0 14 -14z" />
    <glyph glyph-name="quotedbl" unicode="&#x22;" horiz-adv-x="563" 
d="M252 1419l-35 -393q0 -14 -14 -14h-103q-14 0 -14 14l-35 393q0 15 15 15h172q14 0 14 -15zM512 1419l-35 -393q0 -14 -14 -14h-103q-14 0 -14 14l-35 393q0 15 15 15h172q14 0 14 -15z" />
    <glyph glyph-name="numbersign" unicode="#" horiz-adv-x="786" 
d="M444 606l31 221q4 13 -10 13h-109q-13 0 -14 -13l-31 -221q-5 -12 11 -12h108q10 0 14 12zM289 449l-60 -435q-5 -14 -14 -14h-127q-17 0 -12 14l59 435q5 12 -10 12h-74q-15 0 -10 14l16 107q0 12 15 12h71q11 0 15 12l30 221q4 13 -10 13h-86q-17 0 -12 14l16 107
q0 4 6.5 8t10.5 4h84q9 0 14 12l59 434q4 15 17 15h127q14 0 10 -15l-59 -434q-5 -12 10 -12h108q11 0 15 12l59 434q5 15 16 15h127q16 0 11 -15l-60 -434q-5 -12 11 -12h73q15 0 10 -15l-16 -106q0 -12 -14 -12h-72q-13 0 -14 -13l-31 -221q-4 -12 10 -12h86q18 0 13 -14
l-17 -107q0 -4 -6 -8t-10 -4h-84q-12 0 -15 -12l-59 -435q-5 -14 -14 -14h-127q-18 0 -13 14l60 435q4 12 -10 12h-109q-13 0 -14 -12z" />
    <glyph glyph-name="dollar" unicode="$" horiz-adv-x="614" 
d="M47 135v273q0 10 12 18l158 119q4 4 10 1t6 -9v-316q0 -12 13 -12h123q12 0 12 12v346q0 13 -10 19l-277 192q-53 40 -53 94v420q0 45 31.5 77t77.5 32h102q12 0 12 12v109q0 14 15 14h55q12 0 12 -14v-109q0 -12 12 -12h101q45 0 76.5 -32t31.5 -77v-182q0 -11 -10 -18
l-162 -123q-6 -3 -10 -0.5t-4 8.5v227q0 15 -12 15h-123q-13 0 -13 -15v-256q0 -13 11 -18l274 -193q55 -39 55 -92v-510q0 -45 -35 -77q-34 -31 -79 -31h-101q-12 0 -12 -13v-102q0 -14 -12 -14h-55q-15 0 -15 14v102q0 13 -12 13h-96q-45 0 -77 31.5t-32 76.5z" />
    <glyph glyph-name="percent" unicode="%" horiz-adv-x="891" 
d="M309 813h-192q-29 0 -47.5 19.5t-18.5 48.5v485q0 29 18.5 48.5t47.5 19.5h192q29 0 48.5 -19.5t19.5 -48.5v-485q0 -29 -19.5 -48.5t-48.5 -19.5zM238 0h-101q-6 0 -10 4t0 10l510 1405q6 15 18 15h101q14 0 8 -15l-510 -1405q-8 -14 -16 -14zM182 924h66q10 0 10 10
v375q0 10 -10 10h-66q-12 0 -12 -10v-375q0 -10 12 -10zM772 0h-192q-29 0 -47.5 19.5t-18.5 48.5v485q0 29 18.5 48.5t47.5 19.5h192q29 0 48.5 -19.5t19.5 -48.5v-485q0 -29 -19.5 -48.5t-48.5 -19.5zM645 111h66q10 0 10 10v375q0 10 -10 10h-66q-12 0 -12 -10v-375
q0 -10 12 -10z" />
    <glyph glyph-name="ampersand" unicode="&#x26;" horiz-adv-x="791" 
d="M266 188h80q68 0 92 64q4 10 -2 22l-155 338q-1 4 -9 4q-11 0 -26 -28t-15 -62v-305q0 -33 35 -33zM561 14l-22 52q-6 9 -15 0q-49 -66 -147 -66h-215q-46 0 -84 33q-37 33 -37 80v428q0 137 86 202l55 43q8 10 4 19l-28 65q-54 131 -54 226v215q0 50 35 87q34 36 86 36
h297q47 0 80 -33t33 -80v-231q0 -16 -8 -21l-156 -127q-4 -3 -8 -0.5t-4 8.5v271q0 22 -23 22h-119q-24 0 -24 -22v-95q0 -28 6 -79q6 -48 29 -93l198 -401q6 -11 11 2l53 207q2 14 16 14h162q15 0 10 -20l-129 -430q-4 -10 2 -23l142 -289q6 -14 -9 -14h-200q-17 0 -23 14z
" />
    <glyph glyph-name="quotesingle" unicode="'" horiz-adv-x="303" 
d="M252 1419l-35 -393q0 -14 -14 -14h-103q-14 0 -14 14l-35 393q0 15 15 15h172q14 0 14 -15z" />
    <glyph glyph-name="parenleft" unicode="(" horiz-adv-x="406" 
d="M375 1419v-137q0 -14 -13 -14h-92q-45 0 -45 -43v-1225q0 -17 12 -30t33 -13h92q13 0 13 -14v-133q0 -15 -13 -15h-169q-61 0 -101 42q-41 43 -41 102v1351q0 59 41 102q40 42 101 42h169q13 0 13 -15z" />
    <glyph glyph-name="parenright" unicode=")" horiz-adv-x="406" 
d="M31 -190v137q0 14 12 14h92q45 0 45 43v1225q0 17 -11.5 30t-33.5 13h-92q-12 0 -12 14v133q0 15 12 15h170q59 0 100 -42q41 -43 41 -102v-1351q0 -59 -41 -102q-41 -42 -100 -42h-170q-12 0 -12 15z" />
    <glyph glyph-name="asterisk" unicode="*" horiz-adv-x="748" 
d="M373 918l-170 -181q-7 -12 -21 -4l-53 41q-7 4 0 17l131 221l-221 92q-14 6 -10 16l22 64q4 10 17 6l231 -43l29 252q0 14 14 14h66q12 0 12 -14l29 -252l231 43q12 4 16 -6l23 -64q4 -10 -10 -16l-222 -92l131 -221q8 -13 0 -17l-55 -39q-13 -8 -20 4z" />
    <glyph glyph-name="plus" unicode="+" horiz-adv-x="598" 
d="M385 678v-152q0 -12 -14 -12h-144q-14 0 -14 12v152q0 12 -12 12h-138q-12 0 -12 15v135q0 14 12 14h138q12 0 12 12v152q0 12 14 12h144q14 0 14 -12v-152q0 -12 12 -12h138q12 0 12 -14v-135q0 -15 -12 -15h-138q-12 0 -12 -12z" />
    <glyph glyph-name="comma" unicode="," horiz-adv-x="303" 
d="M117 -201h-66q-11 0 -6 11l80 180q4 10 -6 10h-62q-16 0 -16 16v189q0 16 16 16h189q16 0 16 -16v-176q0 -16 -4 -21l-113 -192q-11 -17 -28 -17z" />
    <glyph glyph-name="hyphen" unicode="-" horiz-adv-x="451" 
d="M90 860h316q15 0 10 -14l-41 -148q-5 -12 -17 -12h-315q-15 0 -10 14l41 148q4 12 16 12z" />
    <glyph glyph-name="hyphen" unicode="&#xad;" horiz-adv-x="451" 
d="M90 860h316q15 0 10 -14l-41 -148q-5 -12 -17 -12h-315q-15 0 -10 14l41 148q4 12 16 12z" />
    <glyph glyph-name="period" unicode="." horiz-adv-x="303" 
d="M262 207v-193q0 -14 -14 -14h-193q-14 0 -14 14v193q0 14 14 14h193q14 0 14 -14z" />
    <glyph glyph-name="slash" unicode="/" horiz-adv-x="631" 
d="M123 -205h-127q-15 0 -10 15l456 1609q4 15 19 15h127q12 0 8 -15l-457 -1609q-5 -15 -16 -15z" />
    <glyph glyph-name="zero" unicode="0" horiz-adv-x="676" 
d="M502 0h-330q-52 0 -86 36q-35 37 -35 87v1188q0 50 35 87q34 36 86 36h330q51 0 87 -36t36 -87v-1188q0 -51 -36 -87t-87 -36zM276 184h125q11 0 17 7t6 16v1012q0 22 -23 22h-125q-24 0 -24 -22v-1012q0 -9 7 -16t17 -7z" />
    <glyph glyph-name="one" unicode="1" horiz-adv-x="416" 
d="M164 14v1215q0 12 -12 12h-129q-16 0 -11 14l45 166q4 13 17 13h278q13 0 13 -15v-1405q0 -14 -15 -14h-174q-12 0 -12 14z" />
    <glyph glyph-name="two" unicode="2" horiz-adv-x="639" 
d="M586 0h-529q-14 0 -14 16v140q0 28 6 44q9 25 19 46l305 672q24 55 24 133v176q0 14 -12 14h-143q-13 0 -13 -14v-256q0 -6 -6 -9.5t-10 1.5l-168 127q-10 10 -10 20v211q0 47 32.5 80t79.5 33h338q47 0 80 -33t33 -80v-289q0 -61 -10.5 -108t-38.5 -105l-291 -622
q-7 -13 6 -13h322q12 0 12 -14v-156q0 -14 -12 -14z" />
    <glyph glyph-name="three" unicode="3" horiz-adv-x="649" 
d="M485 0h-338q-47 0 -79.5 33t-32.5 80v190q0 7 10 21l168 127q4 4 10 1t6 -10v-243q0 -15 13 -15h143q12 0 12 13v436q0 10 -6.5 19.5t-19.5 9.5h-174q-9 0 -9 10l48 168q4 10 12 10h123q13 0 19.5 9t6.5 20v350q0 12 -12 12h-143q-13 0 -13 -14v-254q0 -6 -6 -9t-10 1
l-168 127q-10 10 -10 20v209q0 47 32.5 80t79.5 33h338q47 0 80 -33t33 -80v-438q0 -46 -27 -80q-25 -35 -51 -51q-7 -7 0 -13q26 -17 51 -54q27 -37 27 -83v-489q0 -47 -33 -80t-80 -33z" />
    <glyph glyph-name="four" unicode="4" horiz-adv-x="719" 
d="M582 0h-174q-13 0 -13 14v295q0 13 -12 13h-328q-14 0 -14 16v141q0 30 4 45q2 8 10 45l195 850q4 15 16 15h189q15 0 10 -15l-215 -899q-6 -10 6 -10h127q12 0 12 12v256q0 15 11 21l174 131q4 4 10 1t6 -9v-400q0 -12 12 -12h68q12 0 12 -14v-160q0 -14 -12 -14h-68
q-12 0 -12 -13v-295q0 -14 -14 -14z" />
    <glyph glyph-name="five" unicode="5" horiz-adv-x="657" 
d="M410 207v446q0 23 -17 23h-315q-27 0 -27 29v714q0 15 12 15h541q16 0 12 -15l-43 -162q-5 -12 -16 -12h-293q-12 0 -12 -12v-344q0 -19 20 -19h215q53 0 87 -36q36 -34 36 -86v-625q0 -51 -36 -87q-34 -36 -87 -36h-323q-47 0 -80 33t-33 80v262q0 14 10 20l168 127
q4 4 10.5 1t6.5 -9v-315q0 -15 12 -15h139q3 0 5.5 0.5t4 2t2 2.5t1 4t0.5 4.5v5v4.5z" />
    <glyph glyph-name="six" unicode="6" horiz-adv-x="676" 
d="M430 991v236q0 14 -12 14h-154q-12 0 -12 -22v-388q0 -3 2 -4.5t5 -0.5t5 5q24 41 52 55.5t73 14.5h115q49 0 85 -36t36 -87v-655q0 -51 -36 -87t-87 -36h-330q-52 0 -86 36q-35 37 -35 87v1188q0 50 35 87q34 36 86 36h326q51 0 87 -36t36 -87v-183q0 -15 -13 -22
l-162 -123q-4 -4 -10 -1t-6 9zM252 684v-487q0 -13 14 -13h144q14 0 14 13v487q0 23 -12 23h-146q-14 0 -14 -23z" />
    <glyph glyph-name="seven" unicode="7" horiz-adv-x="713" 
d="M373 0h-205q-8 0 -8 10l299 1221q2 14 -6 14h-205q-12 0 -12 -14v-260q0 -6 -6.5 -9.5t-10.5 1.5l-168 127q-10 6 -10 20v309q0 15 12 15h565q54 0 54 -43v-127q0 -26 -15 -84l-272 -1170q-4 -10 -12 -10z" />
    <glyph glyph-name="eight" unicode="8" horiz-adv-x="672" 
d="M508 0h-344q-47 0 -80 33t-33 80v505q0 60 55 103l50 39q10 10 0 16l-70 47q-35 25 -35 84v414q0 47 33 80t80 33h344q47 0 80 -33t33 -80v-389q0 -60 -56 -98l-47 -37q-11 -11 0 -17l72 -51q31 -24 31 -82v-534q0 -47 -33 -80t-80 -33zM252 1229v-271q0 -12 12 -20
l144 -88q12 -8 12 4v375q0 12 -12 12h-144q-12 0 -12 -12zM252 700v-503q0 -13 12 -13h144q12 0 12 13v399q0 12 -12 20l-144 89q-12 7 -12 -5z" />
    <glyph glyph-name="nine" unicode="9" horiz-adv-x="676" 
d="M424 750v479q0 12 -14 12h-144q-14 0 -14 -12v-479v-9t1 -6.5t3.5 -6t7.5 -1.5h146q14 0 14 23zM246 442v-243q0 -15 12 -15h154q12 0 12 23v395q0 3 -2 4.5t-5 0.5t-5 -5q-24 -41 -52 -55.5t-73 -14.5h-115q-49 0 -85 36t-36 87v656q0 51 36 87t87 36h330q52 0 86 -36
q35 -37 35 -87v-1188q0 -50 -35 -87q-34 -36 -86 -36h-326q-51 0 -87 36t-36 87v182q0 14 13 23l161 123q4 4 10.5 1t6.5 -10z" />
    <glyph glyph-name="colon" unicode=":" horiz-adv-x="303" 
d="M262 207v-193q0 -14 -14 -14h-193q-14 0 -14 14v193q0 14 14 14h193q14 0 14 -14zM262 637v-193q0 -14 -14 -14h-193q-14 0 -14 14v193q0 14 14 14h193q14 0 14 -14z" />
    <glyph glyph-name="semicolon" unicode=";" horiz-adv-x="303" 
d="M117 -201h-66q-11 0 -6 11l80 180q4 10 -6 10h-62q-16 0 -16 16v189q0 16 16 16h189q16 0 16 -16v-176q0 -16 -4 -21l-113 -192q-11 -17 -28 -17zM262 637v-193q0 -14 -14 -14h-193q-14 0 -14 14v193q0 14 14 14h193q14 0 14 -14z" />
    <glyph glyph-name="semicolon" unicode="&#x37e;" horiz-adv-x="303" 
d="M117 -201h-66q-11 0 -6 11l80 180q4 10 -6 10h-62q-16 0 -16 16v189q0 16 16 16h189q16 0 16 -16v-176q0 -16 -4 -21l-113 -192q-11 -17 -28 -17zM262 637v-193q0 -14 -14 -14h-193q-14 0 -14 14v193q0 14 14 14h193q14 0 14 -14z" />
    <glyph glyph-name="less" unicode="&#x3c;" horiz-adv-x="651" 
d="M385 10l-334 484q-13 22 0 41l340 479q6 10 19 10h176q10 0 6 -10l-328 -469q-12 -19 0 -37l340 -498q6 -10 -6 -10h-195q-12 0 -18 10z" />
    <glyph glyph-name="equal" unicode="=" horiz-adv-x="598" 
d="M63 977h472q12 0 12 -14v-136q0 -14 -12 -14h-472q-12 0 -12 14v136q0 14 12 14zM63 731h472q12 0 12 -14v-135q0 -15 -12 -15h-472q-12 0 -12 15v135q0 14 12 14z" />
    <glyph glyph-name="greater" unicode="&#x3e;" horiz-adv-x="651" 
d="M244 1014l334 -484q13 -22 0 -40l-340 -480q-7 -10 -19 -10h-176q-10 0 -6 10l328 469q12 19 0 37l-340 498q-7 10 6 10h194q13 0 19 -10z" />
    <glyph glyph-name="question" unicode="?" horiz-adv-x="666" 
d="M387 393h-123q-14 0 -14 15l-4 264q-2 64 5.5 99t33.5 56l116 99q19 15 19 49v254q0 14 -12 14h-170q-13 0 -13 -14v-236q0 -6 -6 -9t-10 1l-158 119q-10 10 -10 20v197q0 47 32.5 80t80.5 33h358q47 0 80 -33t33 -80v-381q0 -104 -60 -141l-119 -82q-28 -21 -34 -84
l-11 -225q0 -15 -14 -15zM436 207v-193q0 -14 -14 -14h-193q-14 0 -14 14v193q0 14 14 14h193q14 0 14 -14z" />
    <glyph glyph-name="at" unicode="@" horiz-adv-x="918" 
d="M692 338h51q16 0 26.5 14t10.5 31v813q0 73 -39.5 114.5t-115.5 41.5h-332q-77 0 -116.5 -41t-39.5 -115v-958q0 -62 39 -109t117 -47h524q12 0 8 -10l-18 -62q-4 -10 -12 -10h-519q-103 0 -164 61t-61 164v983q0 103 61 164q62 62 164 62h361q105 0 167 -61.5t62 -164.5
v-837q0 -47 -32 -82t-80 -35h-95q-37 0 -74 23q-35 23 -46 59q-2 6 -6.5 6t-8.5 -6l-22 -37q-16 -27 -37 -36t-57 -9h-60q-37 0 -62.5 26.5t-25.5 63.5v737q0 37 25.5 63.5t62.5 26.5h45q62 0 84 -34l23 -37q9 -14 14 0v57q0 14 14 14h117q12 0 12 -14v-774q0 -45 35 -45z
M514 414v598q0 16 -16 16h-70q-18 0 -18 -16v-598q0 -17 18 -17h70q16 0 16 17z" />
    <glyph glyph-name="A" unicode="A" 
d="M276 471h127q11 0 11 10l-68 621q-1 5 -3.5 7t-5 0t-3.5 -7l-68 -621q0 -10 10 -10zM244 268l-29 -254q0 -14 -14 -14h-168q-13 0 -13 14l170 1405q0 15 13 15h280q13 0 13 -15l170 -1405q0 -14 -13 -14h-174q-14 0 -14 14l-29 254q0 8 -12 8h-168q-12 0 -12 -8z" />
    <glyph glyph-name="B" unicode="B" horiz-adv-x="666" 
d="M502 0h-439q-12 0 -12 14v1405q0 15 12 15h439q47 0 79.5 -33t32.5 -80v-348q0 -88 -79 -142l-82 -53q-23 -12 0 -24l82 -54q35 -23 57 -62t22 -85v-440q0 -47 -32.5 -80t-79.5 -33zM268 856l119 86q27 23 27 29v256q0 12 -13 12h-133q-12 0 -12 -12v-365q0 -4 3 -6.5
t9 0.5zM387 584l-119 88q-12 8 -12 -6v-463q0 -13 12 -13h133q13 0 13 13v352q0 4 -27 29z" />
    <glyph glyph-name="C" unicode="C" horiz-adv-x="645" 
d="M604 444v-321q0 -51 -36 -87t-87 -36h-309q-52 0 -86 36q-35 37 -35 87v1188q0 50 35 87q34 36 86 36h309q51 0 87 -36t36 -87v-275q0 -14 -12 -22l-166 -123q-4 -4 -10 -1t-6 9v313q0 23 -23 23h-106q-25 0 -25 -23v-999q0 -9 7 -16t18 -7h106q9 0 16 7t7 16v367
q0 6 6 9t10 -1l166 -123q12 -7 12 -21z" />
    <glyph glyph-name="D" unicode="D" horiz-adv-x="676" 
d="M63 1434h408q64 0 109 -46q45 -45 45 -108v-1126q0 -64 -45 -109t-109 -45h-408q-12 0 -12 14v1405q0 15 12 15zM268 190h119q12 0 22.5 10.5t10.5 22.5v979q0 12 -10.5 22.5t-22.5 10.5h-119q-12 0 -12 -12v-1020q0 -13 12 -13z" />
    <glyph glyph-name="E" unicode="E" horiz-adv-x="582" 
d="M63 1434h476q12 0 12 -15v-170q0 -14 -12 -14h-271q-12 0 -12 -12v-338q0 -15 12 -15h236q15 0 10 -14l-47 -168q-5 -12 -16 -12h-183q-12 0 -12 -12v-461q0 -13 12 -13h271q12 0 12 -14v-162q0 -14 -12 -14h-476q-12 0 -12 14v1405q0 15 12 15z" />
    <glyph glyph-name="F" unicode="F" horiz-adv-x="582" 
d="M244 0h-181q-12 0 -12 14v1405q0 15 12 15h476q12 0 12 -15v-170q0 -14 -12 -14h-271q-12 0 -12 -12v-338q0 -15 12 -15h236q15 0 10 -14l-47 -168q-5 -12 -16 -12h-183q-12 0 -12 -12v-650q0 -14 -12 -14z" />
    <glyph glyph-name="G" unicode="G" horiz-adv-x="666" 
d="M174 1434h318q52 0 86 -36q36 -36 36 -87v-267q0 -16 -10 -22l-170 -127q-4 -4 -9 -1t-5 9v320q0 12 -14 12h-136q-14 0 -14 -12v-1020q0 -13 14 -13h136q14 0 14 13v354q0 14 -14 14h-76q-15 0 -11 13l48 168q5 12 18 12h217q12 0 12 -12v-738q0 -14 -12 -14h-113
q-11 0 -16 12l-22 70q-2 6 -6.5 6t-8.5 -6l-22 -37q-16 -27 -37.5 -36t-57.5 -9h-145q-51 0 -87 36t-36 87v1188q0 51 36 87t87 36z" />
    <glyph glyph-name="H" unicode="H" 
d="M256 1419v-534q0 -15 12 -15h150q12 0 12 15v534q0 15 14 15h179q12 0 12 -15v-1405q0 -14 -12 -14h-179q-14 0 -14 14v650q0 12 -12 12h-150q-12 0 -12 -12v-650q0 -14 -12 -14h-178q-15 0 -15 14v1405q0 15 15 15h178q12 0 12 -15z" />
    <glyph glyph-name="I" unicode="I" horiz-adv-x="307" 
d="M244 0h-178q-15 0 -15 14v1405q0 15 15 15h178q12 0 12 -15v-1405q0 -14 -12 -14z" />
    <glyph glyph-name="J" unicode="J" horiz-adv-x="645" 
d="M475 0h-321q-48 0 -80.5 33t-32.5 80v293q0 12 12 20l166 123q4 4 10.5 1t6.5 -9v-338q0 -13 12 -13h129q12 0 12 13v1022q0 14 -12 14h-164q-12 0 -16 12l-47 168q-4 15 10 15h422q12 0 12 -15v-1308q0 -49 -37 -80t-82 -31z" />
    <glyph glyph-name="K" unicode="K" horiz-adv-x="698" 
d="M383 987l78 434q1 13 24 13h164q15 0 10 -15l-86 -458q-17 -83 -77 -125l-76 -50q-12 -10 0 -18l78 -47q63 -43 80 -121l102 -586q2 -5 -2.5 -9.5t-9.5 -4.5h-189q-9 0 -14 14l-80 498q-6 40 -11 55q-4 14 -22 25l-88 61q-12 9 -12 -6l4 -635q0 -12 -12 -12h-181
q-12 0 -12 14v1405q0 15 12 15h181q12 0 12 -13l-4 -530q0 -5 3 -7t9 1l76 53q37 25 43 49z" />
    <glyph glyph-name="L" unicode="L" horiz-adv-x="582" 
d="M268 195h269q14 0 14 -15v-166q0 -14 -14 -14h-474q-12 0 -12 14v1405q0 15 12 15h179q14 0 14 -15v-1212q0 -12 12 -12z" />
    <glyph glyph-name="M" unicode="M" horiz-adv-x="956" 
d="M705 14l8 1078q0 10 -5.5 11t-9.5 -7l-116 -209q-7 -13 -7 -23v-850q0 -14 -12 -14h-168q-14 0 -14 14v850q0 10 -6 23l-117 209q-4 8 -9 7t-5 -11l8 -1078q0 -14 -12 -14h-174q-15 0 -15 14v1405q0 15 15 15h208q3 0 6 -2.5t6.5 -7t4.5 -5.5l182 -325q6 -10 12 0
l181 325q1 1 4.5 5.5t6.5 7t5 2.5h209q14 0 14 -15v-1405q0 -14 -14 -14h-174q-12 0 -12 14z" />
    <glyph glyph-name="N" unicode="N" horiz-adv-x="698" 
d="M233 985l9 -971q0 -14 -13 -14h-163q-15 0 -15 14v1405q0 15 15 15h182q8 0 16 -15l185 -506q2 -5 5 -6.5t5 1t2 7.5l-4 504q0 15 14 15h164q12 0 12 -15v-1405q0 -14 -12 -14h-160q-14 0 -14 14l-2 379q0 19 -6 35l-207 559q-4 8 -8.5 8t-4.5 -10z" />
    <glyph glyph-name="O" unicode="O" 
d="M512 0h-340q-52 0 -86 36q-35 37 -35 87v1188q0 50 35 87q34 36 86 36h340q51 0 87 -36t36 -87v-1188q0 -51 -36 -87t-87 -36zM281 190h127q9 0 15.5 7t6.5 16v999q0 23 -22 23h-127q-25 0 -25 -23v-999q0 -9 7 -16t18 -7z" />
    <glyph glyph-name="P" unicode="P" horiz-adv-x="666" 
d="M535 741l-271 -196q-8 -8 -8 -25v-508q0 -12 -12 -12h-181q-12 0 -12 14v1405q0 15 12 15h439q47 0 79.5 -33t32.5 -80v-430q0 -47 -18 -82t-61 -68zM268 788l119 86q27 21 27 46v307q0 12 -13 12h-133q-12 0 -12 -12v-432q0 -5 3 -7.5t9 0.5z" />
    <glyph glyph-name="Q" unicode="Q" 
d="M627 -82v-158q0 -14 -15 -10l-391 119q-14 5 -14 18v111h-35q-52 0 -86 36q-35 37 -35 87v1188q0 50 35 87q34 36 86 36h340q51 0 87 -36t36 -87v-1188q0 -51 -36 -87t-87 -36h-125l225 -64q15 -4 15 -16zM281 178h127q9 0 15.5 7t6.5 16v1009q0 23 -22 23h-127
q-25 0 -25 -23v-1009q0 -9 7 -16t18 -7z" />
    <glyph glyph-name="R" unicode="R" horiz-adv-x="676" 
d="M268 838l119 82q27 23 27 28v279q0 12 -13 12h-133q-12 0 -12 -12v-383q0 -4 3 -6.5t9 0.5zM256 571v-559q0 -12 -12 -12h-181q-12 0 -12 14v1405q0 15 12 15h439q47 0 79.5 -33t32.5 -80v-375q0 -81 -82 -151q-10 -11 -12 -17t0 -16l146 -748q2 -5 -3 -9.5t-10 -4.5
h-184q-9 0 -14 14l-117 615q-5 20 -21 8l-53 -41q-8 -5 -8 -25z" />
    <glyph glyph-name="S" unicode="S" horiz-adv-x="631" 
d="M41 113v454q0 6 6 9.5t10 -1.5l166 -120q13 -9 13 -21v-235q0 -13 12 -13h129q12 0 12 13v364q0 15 -10 21l-283 200q-32 22 -43.5 44.5t-11.5 54.5v438q0 47 32.5 80t80.5 33h323q47 0 80 -33t33 -80v-191q0 -10 -10 -20l-168 -127q-4 -4 -10.5 -1t-6.5 9v234
q0 14 -12 14h-129q-12 0 -12 -14v-262q0 -15 10 -21l280 -201q58 -40 58 -96v-532q0 -47 -36 -80t-83 -33h-317q-48 0 -80.5 33t-32.5 80z" />
    <glyph glyph-name="T" unicode="T" horiz-adv-x="659" 
d="M420 0h-180q-13 0 -13 14v1209q0 12 -14 12h-178q-15 0 -15 12v172q0 15 15 15h592q12 0 12 -15v-172q0 -12 -12 -12h-181q-14 0 -14 -12v-1209q0 -14 -12 -14z" />
    <glyph glyph-name="U" unicode="U" horiz-adv-x="666" 
d="M424 1434h178q12 0 12 -15v-1308q0 -49 -37 -80q-35 -31 -81 -31h-336q-46 0 -77 33q-32 34 -32 73v1313q0 15 12 15h179q14 0 14 -15v-1216q0 -13 12 -13h129q13 0 13 13v1216q0 15 14 15z" />
    <glyph glyph-name="V" unicode="V" 
d="M483 0h-280q-13 0 -13 14l-170 1405q0 15 13 15h174q14 0 14 -15l125 -1128l125 1128q0 15 14 15h168q13 0 13 -15l-170 -1405q0 -14 -13 -14z" />
    <glyph glyph-name="W" unicode="W" horiz-adv-x="977" 
d="M918 459l-89 -445q-5 -14 -14 -14h-233q-12 0 -17 14l-69 248q-1 5 -3.5 7t-5.5 0t-4 -7l-71 -248q-5 -14 -17 -14h-233q-10 0 -15 14l-88 445q-8 46 -8 94v866q0 15 15 15h172q12 0 12 -15v-893q0 -32 6 -59l39 -223q5 -21 12 0l80 250q4 10 4 55v870q0 15 15 15h167
q13 0 13 -15v-870q0 -45 4 -55l80 -250q8 -22 12 0l39 223q6 27 6 59v893q0 15 12 15h172q15 0 15 -15v-866q0 -48 -8 -94z" />
    <glyph glyph-name="X" unicode="X" horiz-adv-x="674" 
d="M242 358v-344q0 -14 -13 -14h-174q-14 0 -14 14v365q0 29 5 49q4 17 20 47l141 275q11 18 0 36l-141 275q-16 30 -20 47q-5 20 -5 49v262q0 15 14 15h174q13 0 13 -15v-241q0 -55 22 -97l66 -131q8 -18 16 0l64 131q22 49 22 97v241q0 15 12 15h174q15 0 15 -15v-262
q0 -29 -5 -49q-4 -17 -20 -47l-141 -275q-11 -18 0 -36l141 -275q16 -30 20 -47q5 -20 5 -49v-365q0 -14 -15 -14h-174q-12 0 -12 14v344q0 48 -22 97l-64 131q-8 18 -16 0l-66 -131q-22 -42 -22 -97z" />
    <glyph glyph-name="Y" unicode="Y" horiz-adv-x="653" 
d="M416 0h-178q-15 0 -15 14v598q0 22 -10 39l-147 287q-16 31 -20.5 54t-4.5 63v364q0 15 14 15h174q13 0 13 -15v-344q0 -33 4 -49q5 -19 18 -47l55 -111q9 -17 17 0l53 111q13 28 18 47q5 20 5 49v344q0 15 12 15h174q14 0 14 -15v-364q0 -67 -24 -117l-150 -291
q-10 -17 -10 -39v-594q0 -14 -12 -14z" />
    <glyph glyph-name="Z" unicode="Z" horiz-adv-x="606" 
d="M551 0h-506q-7 0 -11.5 4t-2.5 10l295 1215q0 10 -9 10h-270q-12 0 -12 14v166q0 15 12 15h526q6 0 10.5 -4.5t2.5 -10.5l-295 -1214q0 -10 8 -10h252q12 0 12 -15v-166q0 -14 -12 -14z" />
    <glyph glyph-name="bracketleft" unicode="[" horiz-adv-x="408" 
d="M365 -205h-302q-12 0 -12 15v1609q0 15 12 15h302q12 0 12 -15v-137q0 -14 -12 -14h-127q-13 0 -13 -13v-1286q0 -12 13 -12h127q12 0 12 -14v-133q0 -15 -12 -15z" />
    <glyph glyph-name="backslash" unicode="\" horiz-adv-x="631" 
d="M633 -205h-127q-12 0 -17 15l-456 1609q-5 15 8 15h127q14 0 18 -15l457 -1609q5 -15 -10 -15z" />
    <glyph glyph-name="bracketright" unicode="]" horiz-adv-x="408" 
d="M43 1434h301q12 0 12 -15v-1609q0 -15 -12 -15h-301q-12 0 -12 15v137q0 14 12 14h127q12 0 12 12v1287q0 12 -12 12h-127q-12 0 -12 14v133q0 15 12 15z" />
    <glyph glyph-name="asciicircum" unicode="^" horiz-adv-x="862" 
d="M440 1094l379 -529q4 -4 3 -11t-7 -7h-158q-16 0 -22 8l-207 297q-8 11 -14 0l-197 -285q-6 -8 -20 -8h-150q-6 0 -7 7t3 12l356 516q7 10 20 10t21 -10z" />
    <glyph glyph-name="underscore" unicode="_" horiz-adv-x="610" 
d="M612 -205h-614v103h614v-103z" />
    <glyph glyph-name="grave" unicode="`" horiz-adv-x="432" 
d="M315 1520h-114q-10 0 -21 8l-137 131q-4 4 -3 8t7 4h203q10 0 14 -12l58 -129q4 -10 -7 -10z" />
    <glyph glyph-name="a" unicode="a" 
d="M276 471h127q11 0 11 10l-68 621q-1 5 -3.5 7t-5 0t-3.5 -7l-68 -621q0 -10 10 -10zM244 268l-29 -254q0 -14 -14 -14h-168q-13 0 -13 14l170 1405q0 15 13 15h280q13 0 13 -15l170 -1405q0 -14 -13 -14h-174q-14 0 -14 14l-29 254q0 8 -12 8h-168q-12 0 -12 -8z" />
    <glyph glyph-name="b" unicode="b" horiz-adv-x="666" 
d="M502 0h-439q-12 0 -12 14v1405q0 15 12 15h439q47 0 79.5 -33t32.5 -80v-348q0 -88 -79 -142l-82 -53q-23 -12 0 -24l82 -54q35 -23 57 -62t22 -85v-440q0 -47 -32.5 -80t-79.5 -33zM268 856l119 86q27 23 27 29v256q0 12 -13 12h-133q-12 0 -12 -12v-365q0 -4 3 -6.5
t9 0.5zM387 584l-119 88q-12 8 -12 -6v-463q0 -13 12 -13h133q13 0 13 13v352q0 4 -27 29z" />
    <glyph glyph-name="c" unicode="c" horiz-adv-x="645" 
d="M604 444v-321q0 -51 -36 -87t-87 -36h-309q-52 0 -86 36q-35 37 -35 87v1188q0 50 35 87q34 36 86 36h309q51 0 87 -36t36 -87v-275q0 -14 -12 -22l-166 -123q-4 -4 -10 -1t-6 9v313q0 23 -23 23h-106q-25 0 -25 -23v-999q0 -9 7 -16t18 -7h106q9 0 16 7t7 16v367
q0 6 6 9t10 -1l166 -123q12 -7 12 -21z" />
    <glyph glyph-name="d" unicode="d" horiz-adv-x="676" 
d="M63 1434h408q64 0 109 -46q45 -45 45 -108v-1126q0 -64 -45 -109t-109 -45h-408q-12 0 -12 14v1405q0 15 12 15zM268 190h119q12 0 22.5 10.5t10.5 22.5v979q0 12 -10.5 22.5t-22.5 10.5h-119q-12 0 -12 -12v-1020q0 -13 12 -13z" />
    <glyph glyph-name="e" unicode="e" horiz-adv-x="582" 
d="M63 1434h476q12 0 12 -15v-170q0 -14 -12 -14h-271q-12 0 -12 -12v-338q0 -15 12 -15h236q15 0 10 -14l-47 -168q-5 -12 -16 -12h-183q-12 0 -12 -12v-461q0 -13 12 -13h271q12 0 12 -14v-162q0 -14 -12 -14h-476q-12 0 -12 14v1405q0 15 12 15z" />
    <glyph glyph-name="f" unicode="f" horiz-adv-x="582" 
d="M244 0h-181q-12 0 -12 14v1405q0 15 12 15h476q12 0 12 -15v-170q0 -14 -12 -14h-271q-12 0 -12 -12v-338q0 -15 12 -15h236q15 0 10 -14l-47 -168q-5 -12 -16 -12h-183q-12 0 -12 -12v-650q0 -14 -12 -14z" />
    <glyph glyph-name="g" unicode="g" horiz-adv-x="666" 
d="M174 1434h318q52 0 86 -36q36 -36 36 -87v-267q0 -16 -10 -22l-170 -127q-4 -4 -9 -1t-5 9v320q0 12 -14 12h-136q-14 0 -14 -12v-1020q0 -13 14 -13h136q14 0 14 13v354q0 14 -14 14h-76q-15 0 -11 13l48 168q5 12 18 12h217q12 0 12 -12v-738q0 -14 -12 -14h-113
q-11 0 -16 12l-22 70q-2 6 -6.5 6t-8.5 -6l-22 -37q-16 -27 -37.5 -36t-57.5 -9h-145q-51 0 -87 36t-36 87v1188q0 51 36 87t87 36z" />
    <glyph glyph-name="h" unicode="h" 
d="M256 1419v-534q0 -15 12 -15h150q12 0 12 15v534q0 15 14 15h179q12 0 12 -15v-1405q0 -14 -12 -14h-179q-14 0 -14 14v650q0 12 -12 12h-150q-12 0 -12 -12v-650q0 -14 -12 -14h-178q-15 0 -15 14v1405q0 15 15 15h178q12 0 12 -15z" />
    <glyph glyph-name="i" unicode="i" horiz-adv-x="307" 
d="M244 0h-178q-15 0 -15 14v1405q0 15 15 15h178q12 0 12 -15v-1405q0 -14 -12 -14z" />
    <glyph glyph-name="j" unicode="j" horiz-adv-x="645" 
d="M475 0h-321q-48 0 -80.5 33t-32.5 80v293q0 12 12 20l166 123q4 4 10.5 1t6.5 -9v-338q0 -13 12 -13h129q12 0 12 13v1022q0 14 -12 14h-164q-12 0 -16 12l-47 168q-4 15 10 15h422q12 0 12 -15v-1308q0 -49 -37 -80t-82 -31z" />
    <glyph glyph-name="k" unicode="k" horiz-adv-x="698" 
d="M383 987l78 434q1 13 24 13h164q15 0 10 -15l-86 -458q-17 -83 -77 -125l-76 -50q-12 -10 0 -18l78 -47q63 -43 80 -121l102 -586q2 -5 -2.5 -9.5t-9.5 -4.5h-189q-9 0 -14 14l-80 498q-6 40 -11 55q-4 14 -22 25l-88 61q-12 9 -12 -6l4 -635q0 -12 -12 -12h-181
q-12 0 -12 14v1405q0 15 12 15h181q12 0 12 -13l-4 -530q0 -5 3 -7t9 1l76 53q37 25 43 49z" />
    <glyph glyph-name="l" unicode="l" horiz-adv-x="582" 
d="M268 195h269q14 0 14 -15v-166q0 -14 -14 -14h-474q-12 0 -12 14v1405q0 15 12 15h179q14 0 14 -15v-1212q0 -12 12 -12z" />
    <glyph glyph-name="m" unicode="m" horiz-adv-x="956" 
d="M705 14l8 1078q0 10 -5.5 11t-9.5 -7l-116 -209q-7 -13 -7 -23v-850q0 -14 -12 -14h-168q-14 0 -14 14v850q0 10 -6 23l-117 209q-4 8 -9 7t-5 -11l8 -1078q0 -14 -12 -14h-174q-15 0 -15 14v1405q0 15 15 15h208q3 0 6 -2.5t6.5 -7t4.5 -5.5l182 -325q6 -10 12 0
l181 325q1 1 4.5 5.5t6.5 7t5 2.5h209q14 0 14 -15v-1405q0 -14 -14 -14h-174q-12 0 -12 14z" />
    <glyph glyph-name="n" unicode="n" horiz-adv-x="698" 
d="M233 985l9 -971q0 -14 -13 -14h-163q-15 0 -15 14v1405q0 15 15 15h182q8 0 16 -15l185 -506q2 -5 5 -6.5t5 1t2 7.5l-4 504q0 15 14 15h164q12 0 12 -15v-1405q0 -14 -12 -14h-160q-14 0 -14 14l-2 379q0 19 -6 35l-207 559q-4 8 -8.5 8t-4.5 -10z" />
    <glyph glyph-name="o" unicode="o" 
d="M512 0h-340q-52 0 -86 36q-35 37 -35 87v1188q0 50 35 87q34 36 86 36h340q51 0 87 -36t36 -87v-1188q0 -51 -36 -87t-87 -36zM281 190h127q9 0 15.5 7t6.5 16v999q0 23 -22 23h-127q-25 0 -25 -23v-999q0 -9 7 -16t18 -7z" />
    <glyph glyph-name="p" unicode="p" horiz-adv-x="666" 
d="M535 741l-271 -196q-8 -8 -8 -25v-508q0 -12 -12 -12h-181q-12 0 -12 14v1405q0 15 12 15h439q47 0 79.5 -33t32.5 -80v-430q0 -47 -18 -82t-61 -68zM268 788l119 86q27 21 27 46v307q0 12 -13 12h-133q-12 0 -12 -12v-432q0 -5 3 -7.5t9 0.5z" />
    <glyph glyph-name="q" unicode="q" 
d="M627 -82v-158q0 -14 -15 -10l-391 119q-14 5 -14 18v111h-35q-52 0 -86 36q-35 37 -35 87v1188q0 50 35 87q34 36 86 36h340q51 0 87 -36t36 -87v-1188q0 -51 -36 -87t-87 -36h-125l225 -64q15 -4 15 -16zM281 178h127q9 0 15.5 7t6.5 16v1009q0 23 -22 23h-127
q-25 0 -25 -23v-1009q0 -9 7 -16t18 -7z" />
    <glyph glyph-name="r" unicode="r" horiz-adv-x="676" 
d="M268 838l119 82q27 23 27 28v279q0 12 -13 12h-133q-12 0 -12 -12v-383q0 -4 3 -6.5t9 0.5zM256 571v-559q0 -12 -12 -12h-181q-12 0 -12 14v1405q0 15 12 15h439q47 0 79.5 -33t32.5 -80v-375q0 -81 -82 -151q-10 -11 -12 -17t0 -16l146 -748q2 -5 -3 -9.5t-10 -4.5
h-184q-9 0 -14 14l-117 615q-5 20 -21 8l-53 -41q-8 -5 -8 -25z" />
    <glyph glyph-name="s" unicode="s" horiz-adv-x="631" 
d="M41 113v454q0 6 6 9.5t10 -1.5l166 -120q13 -9 13 -21v-235q0 -13 12 -13h129q12 0 12 13v364q0 15 -10 21l-283 200q-32 22 -43.5 44.5t-11.5 54.5v438q0 47 32.5 80t80.5 33h323q47 0 80 -33t33 -80v-191q0 -10 -10 -20l-168 -127q-4 -4 -10.5 -1t-6.5 9v234
q0 14 -12 14h-129q-12 0 -12 -14v-262q0 -15 10 -21l280 -201q58 -40 58 -96v-532q0 -47 -36 -80t-83 -33h-317q-48 0 -80.5 33t-32.5 80z" />
    <glyph glyph-name="t" unicode="t" horiz-adv-x="659" 
d="M420 0h-180q-13 0 -13 14v1209q0 12 -14 12h-178q-15 0 -15 12v172q0 15 15 15h592q12 0 12 -15v-172q0 -12 -12 -12h-181q-14 0 -14 -12v-1209q0 -14 -12 -14z" />
    <glyph glyph-name="u" unicode="u" horiz-adv-x="666" 
d="M424 1434h178q12 0 12 -15v-1308q0 -49 -37 -80q-35 -31 -81 -31h-336q-46 0 -77 33q-32 34 -32 73v1313q0 15 12 15h179q14 0 14 -15v-1216q0 -13 12 -13h129q13 0 13 13v1216q0 15 14 15z" />
    <glyph glyph-name="v" unicode="v" 
d="M483 0h-280q-13 0 -13 14l-170 1405q0 15 13 15h174q14 0 14 -15l125 -1128l125 1128q0 15 14 15h168q13 0 13 -15l-170 -1405q0 -14 -13 -14z" />
    <glyph glyph-name="w" unicode="w" horiz-adv-x="977" 
d="M918 459l-89 -445q-5 -14 -14 -14h-233q-12 0 -17 14l-69 248q-1 5 -3.5 7t-5.5 0t-4 -7l-71 -248q-5 -14 -17 -14h-233q-10 0 -15 14l-88 445q-8 46 -8 94v866q0 15 15 15h172q12 0 12 -15v-893q0 -32 6 -59l39 -223q5 -21 12 0l80 250q4 10 4 55v870q0 15 15 15h167
q13 0 13 -15v-870q0 -45 4 -55l80 -250q8 -22 12 0l39 223q6 27 6 59v893q0 15 12 15h172q15 0 15 -15v-866q0 -48 -8 -94z" />
    <glyph glyph-name="x" unicode="x" horiz-adv-x="674" 
d="M242 358v-344q0 -14 -13 -14h-174q-14 0 -14 14v365q0 29 5 49q4 17 20 47l141 275q11 18 0 36l-141 275q-16 30 -20 47q-5 20 -5 49v262q0 15 14 15h174q13 0 13 -15v-241q0 -55 22 -97l66 -131q8 -18 16 0l64 131q22 49 22 97v241q0 15 12 15h174q15 0 15 -15v-262
q0 -29 -5 -49q-4 -17 -20 -47l-141 -275q-11 -18 0 -36l141 -275q16 -30 20 -47q5 -20 5 -49v-365q0 -14 -15 -14h-174q-12 0 -12 14v344q0 48 -22 97l-64 131q-8 18 -16 0l-66 -131q-22 -42 -22 -97z" />
    <glyph glyph-name="y" unicode="y" horiz-adv-x="653" 
d="M416 0h-178q-15 0 -15 14v598q0 22 -10 39l-147 287q-16 31 -20.5 54t-4.5 63v364q0 15 14 15h174q13 0 13 -15v-344q0 -33 4 -49q5 -19 18 -47l55 -111q9 -17 17 0l53 111q13 28 18 47q5 20 5 49v344q0 15 12 15h174q14 0 14 -15v-364q0 -67 -24 -117l-150 -291
q-10 -17 -10 -39v-594q0 -14 -12 -14z" />
    <glyph glyph-name="z" unicode="z" horiz-adv-x="606" 
d="M551 0h-506q-7 0 -11.5 4t-2.5 10l295 1215q0 10 -9 10h-270q-12 0 -12 14v166q0 15 12 15h526q6 0 10.5 -4.5t2.5 -10.5l-295 -1214q0 -10 8 -10h252q12 0 12 -15v-166q0 -14 -12 -14z" />
    <glyph glyph-name="braceleft" unicode="{" horiz-adv-x="524" 
d="M481 -205h-190q-51 0 -86 36q-35 37 -35 87v561q0 23 -15 36t-40 13h-92q-15 0 -11 15l39 143q5 14 15 14h49q24 0 39.5 13.5t15.5 36.5v561q0 50 35 87q35 36 86 36h190q13 0 13 -15v-137q0 -14 -13 -14h-112q-25 0 -25 -23v-497q0 -47 -27 -81.5t-75 -52.5
q47 -16 74.5 -52t27.5 -81v-501q0 -9 7 -16t18 -7h112q13 0 13 -14v-133q0 -15 -13 -15z" />
    <glyph glyph-name="bar" unicode="|" horiz-adv-x="256" 
d="M193 -205h-127q-15 0 -15 15v1609q0 15 15 15h127q12 0 12 -15v-1609q0 -15 -12 -15z" />
    <glyph glyph-name="braceright" unicode="}" horiz-adv-x="524" 
d="M43 1434h190q51 0 86 -36q35 -37 35 -87v-561q0 -23 15.5 -36.5t40.5 -13.5h92q15 0 10 -14l-39 -143q-5 -15 -14 -15h-49q-25 0 -40.5 -13t-15.5 -36v-561q0 -50 -35 -87q-35 -36 -86 -36h-190q-12 0 -12 15v137q0 14 12 14h113q24 0 24 23v497q0 47 27.5 82t75.5 51
q-48 17 -75.5 53t-27.5 81v501q0 9 -7 16t-17 7h-113q-12 0 -12 14v133q0 15 12 15z" />
    <glyph glyph-name="asciitilde" unicode="~" horiz-adv-x="848" 
d="M291 750l-45 -74q-5 -12 -27 -12h-145q-11 0 -4 12l102 178q18 36 41.5 50t67.5 14q52 0 92 -17l153 -72q21 -7 31 7l51 73q7 13 25 13h143q6 0 7.5 -4.5t-1.5 -8.5l-100 -178q-21 -36 -44.5 -50.5t-64.5 -14.5q-49 0 -92 18l-159 70q-23 11 -31 -4z" />
    <glyph glyph-name="exclamdown" unicode="&#xa1;" horiz-adv-x="303" 
d="M41 14l41 1010q0 14 14 14h111q14 0 14 -14l41 -1010q0 -14 -14 -14h-193q-14 0 -14 14zM41 1227v192q0 15 14 15h193q14 0 14 -15v-192q0 -15 -14 -15h-193q-14 0 -14 15z" />
    <glyph glyph-name="cent" unicode="&#xa2;" horiz-adv-x="557" 
d="M324 0v-88q0 -14 -13 -14h-55q-14 0 -14 14v88h-92q-41 0 -70 29.5t-29 70.5v975q0 41 29 71t70 30h92v116q0 15 14 15h55q13 0 13 -15v-116h79q41 0 71 -30t30 -71v-225q0 -12 -10 -19l-136 -100q-4 -3 -9 -0.5t-5 6.5v258q0 21 -18 21h-88q-19 0 -19 -21v-819
q0 -7 5.5 -12.5t13.5 -5.5h88q8 0 13 5.5t5 12.5v299q0 13 14 8l136 -102q10 -4 10 -16v-265q0 -41 -30 -70.5t-71 -29.5h-79z" />
    <glyph glyph-name="sterling" unicode="&#xa3;" horiz-adv-x="725" 
d="M43 186h76q12 0 12 13v438q0 12 -12 12h-84q-15 0 -15 13v55q0 14 15 14h84q12 0 12 12v568q0 50 35 87q34 36 86 36h309q51 0 87 -36t36 -87v-254q0 -15 -12 -23l-162 -121q-4 -4 -10 -1t-6 10v292q0 23 -23 23h-115q-24 0 -24 -23v-471q0 -12 12 -12h186q15 0 15 -14
v-55q0 -13 -15 -13h-186q-12 0 -12 -12v-438q0 -13 12 -13h326q14 0 14 -14v-158q0 -14 -14 -14h-627q-14 0 -14 14v158q0 14 14 14z" />
    <glyph glyph-name="currency" unicode="&#xa4;" horiz-adv-x="1014" 
 />
    <glyph glyph-name="yen" unicode="&#xa5;" horiz-adv-x="653" 
d="M428 371v-357q0 -14 -12 -14h-178q-15 0 -15 14v357q0 12 -12 12h-143q-15 0 -15 12v56q0 14 15 14h143q12 0 12 12v58q0 12 -12 12h-143q-15 0 -15 12v55q0 15 15 15h141q6 0 10 4t0 8l-6 10l-147 287q-16 31 -20.5 54t-4.5 63v364q0 15 14 15h174q13 0 13 -15v-344
q0 -33 4 -49q5 -19 18 -47l55 -111q9 -17 17 0l53 111q13 28 18 47q5 20 5 49v344q0 15 12 15h174q14 0 14 -15v-364q0 -67 -24 -117l-150 -291l-4 -8q-4 -10 8 -10h142q14 0 14 -15v-55q0 -12 -14 -12h-144q-12 0 -12 -12v-58q0 -12 12 -12h144q14 0 14 -14v-56
q0 -12 -14 -12h-144q-12 0 -12 -12z" />
    <glyph glyph-name="brokenbar" unicode="&#xa6;" horiz-adv-x="1014" 
 />
    <glyph glyph-name="section" unicode="&#xa7;" horiz-adv-x="864" 
d="M262 516l342 -233q8 5 8 12v274q0 15 -10 21l-342 233q-8 -5 -8 -12v-274q0 -15 10 -21zM582 -328h-365q-47 0 -80 33t-33 80v309q0 6 6.5 9t10.5 -1l168 -127q10 -7 10 -20v-86q0 -14 12 -14h170q13 0 13 14v213q0 14 -11 20l-374 256q-34 24 -46 45t-12 52v446
q0 47 36 80t83 33v307q0 47 33 80t80 33h364q47 0 80 -33t33 -80v-170q0 -11 -10 -21l-168 -126q-4 -5 -10.5 -1.5t-6.5 9.5v217q0 14 -12 14h-170q-12 0 -12 -14v-205q0 -14 10 -20l375 -256q33 -22 45 -44t12 -53v-446q0 -47 -36 -80t-83 -33v-307q0 -47 -32.5 -80
t-79.5 -33z" />
    <glyph glyph-name="dieresis" unicode="&#xa8;" horiz-adv-x="541" 
d="M227 1520h-149q-12 0 -12 10v131q0 12 12 12h149q13 0 13 -12v-131q0 -10 -13 -10zM463 1520h-150q-12 0 -12 10v131q0 12 12 12h150q12 0 12 -12v-131q0 -10 -12 -10z" />
    <glyph glyph-name="copyright" unicode="&#xa9;" horiz-adv-x="913" 
d="M51 225v983q0 103 61 164q62 62 164 62h361q105 0 167 -61.5t62 -164.5v-983q0 -102 -62 -164q-61 -61 -163 -61h-360q-108 0 -169 61t-61 164zM780 238v958q0 73 -39.5 114.5t-115.5 41.5h-332q-77 0 -116.5 -41t-39.5 -115v-958q0 -74 39.5 -115t116.5 -41h332
q76 0 115.5 41.5t39.5 114.5zM655 518v-164q0 -37 -26.5 -63.5t-63.5 -26.5h-219q-37 0 -62.5 26.5t-25.5 63.5v727q0 37 25.5 63.5t62.5 26.5h219q37 0 63.5 -26.5t26.5 -63.5v-139q0 -11 -8 -16l-123 -90q-4 -5 -8 -1.5t-4 7.5v168q0 16 -16 16h-70q-18 0 -18 -16v-588
q0 -16 18 -16h70q16 0 16 16v194q0 5 4 8t8 -1l123 -91q8 -5 8 -14z" />
    <glyph glyph-name="ordfeminine" unicode="&#xaa;" horiz-adv-x="648" 
 />
    <glyph glyph-name="guillemotleft" unicode="&#xab;" horiz-adv-x="844" 
d="M285 10l-234 484q-6 10 0 20l246 500q6 10 18 10h177q10 0 6 -10l-250 -479q-10 -19 0 -37l239 -488q4 -10 -6 -10h-178q-12 0 -18 10zM594 10l-246 494q-6 10 0 20l246 490q6 10 18 10h176q11 0 7 -10l-250 -469q-10 -19 0 -37l252 -498q4 -10 -6 -10h-179q-12 0 -18 10
z" />
    <glyph glyph-name="logicalnot" unicode="&#xac;" horiz-adv-x="1014" 
 />
    <glyph glyph-name="registered" unicode="&#xae;" horiz-adv-x="645" 
d="M51 721v579q0 60 37 97t96 37h275q62 0 98.5 -36.5t36.5 -97.5v-579q0 -59 -37 -96t-96 -37h-275q-62 0 -98.5 36.5t-36.5 96.5zM535 735v551q0 43 -23.5 67.5t-65.5 24.5h-247q-42 0 -65 -24.5t-23 -67.5v-551q0 -43 23 -68.5t65 -25.5h247q42 0 65.5 25.5t23.5 68.5z
M295 1190v-164q0 -6 6 -2l41 31q12 7 12 18v117q0 4 -6 4h-47q-6 0 -6 -4zM213 1278h180q21 0 35 -14.5t14 -34.5v-168q0 -40 -36 -66q-9 -5 -5 -14l62 -233q2 -3 0.5 -5t-4.5 -2h-80q-6 0 -6 7l-51 176q-5 8 -9 4l-14 -10q-4 -4 -4 -11v-159q0 -7 -4 -7h-78q-6 0 -6 7v526
q0 4 6 4z" />
    <glyph glyph-name="overscore" unicode="&#xaf;" horiz-adv-x="408" 
d="M330 1540h-252q-12 0 -12 10v90q0 13 12 13h252q12 0 12 -13v-90q0 -10 -12 -10z" />
    <glyph glyph-name="degree" unicode="&#xb0;" horiz-adv-x="584" 
d="M51 987v303q0 66 39 105t105 39h192q68 0 106.5 -39t38.5 -105v-303q0 -65 -38.5 -104t-104.5 -39h-192q-68 0 -107 38.5t-39 104.5zM401 1034v213q0 62 -53 62h-112q-54 0 -54 -62v-219q0 -61 54 -61h112q53 0 53 67z" />
    <glyph glyph-name="plusminus" unicode="&#xb1;" horiz-adv-x="1014" 
 />
    <glyph glyph-name="uni00B2" unicode="&#xb2;" horiz-adv-x="410" 
d="M356 813h-299q-10 0 -10 10v86q0 33 16 56l162 231q25 30 25 70v45q0 8 -8 8h-82q-8 0 -8 -8v-86q0 -4 -3.5 -5t-5.5 1l-96 67q-6 6 -6 12v66q0 29 19.5 48.5t48.5 19.5h192q29 0 48.5 -19.5t19.5 -48.5v-113q0 -33 -8.5 -57t-30.5 -59l-144 -203q-6 -6 2 -6h168
q9 0 9 -8v-99q0 -8 -9 -8z" />
    <glyph glyph-name="uni00B3" unicode="&#xb3;" horiz-adv-x="428" 
d="M315 813h-198q-29 0 -48.5 19.5t-19.5 48.5v37q0 6 6 12l97 67q8 5 8 -4v-59q0 -10 8 -10h88q6 0 6 8v125q0 16 -14 16h-84q-4 0 -4 6l26 92q1 7 7 7h55q14 0 14 18v119q0 8 -6 8h-90q-8 0 -8 -8v-68q0 -4 -3 -6t-5 0l-97 70q-6 6 -6 12v43q0 29 19.5 48.5t48.5 19.5h200
q27 0 46.5 -19.5t19.5 -48.5v-166q0 -20 -12.5 -38.5t-26.5 -28.5q-6 -5 0 -9q14 -9 26.5 -30t12.5 -41v-172q0 -29 -19.5 -48.5t-46.5 -19.5z" />
    <glyph glyph-name="acute" unicode="&#xb4;" horiz-adv-x="432" 
d="M408 1659l-138 -131q-11 -8 -20 -8h-115q-10 0 -6 10l57 129q4 12 15 12h202q6 0 7.5 -4t-2.5 -8z" />
    <glyph glyph-name="mu" unicode="&#xb5;" horiz-adv-x="1180" 
 />
    <glyph glyph-name="paragraph" unicode="&#xb6;" horiz-adv-x="788" 
d="M573 12v1215q0 12 -12 12h-65q-13 0 -13 -12v-1213q0 -14 -12 -14h-137q-15 0 -15 14v721h-165q-48 0 -80.5 33t-32.5 80v473q0 47 32.5 80t80.5 33h571q12 0 12 -15v-1405q0 -14 -12 -14h-139q-13 0 -13 12z" />
    <glyph glyph-name="middot" unicode="&#xb7;" horiz-adv-x="324" 
d="M262 874v-192q0 -14 -14 -14h-193q-14 0 -14 14v192q0 15 14 15h193q14 0 14 -15z" />
    <glyph glyph-name="middot" unicode="&#x2219;" horiz-adv-x="324" 
d="M262 874v-192q0 -14 -14 -14h-193q-14 0 -14 14v192q0 15 14 15h193q14 0 14 -15z" />
    <glyph glyph-name="cedilla" unicode="&#xb8;" horiz-adv-x="1249" 
d="M737 4l8 -45q3 -10 21 -10h53q28 0 44 -18t16 -52v-106q0 -28 -17.5 -46t-46.5 -18h-246q-22 0 -39.5 17.5t-17.5 40.5v26q0 6 4 10l82 66q2 2 5 1t3 -5v-51q0 -13 10 -13h144q12 0 12 13v63q0 6 -6 6h-113q-6 0 -6 8l10 117q0 6 9 6h57q13 0 14 -10z" />
    <glyph glyph-name="uni00B9" unicode="&#xb9;" horiz-adv-x="287" 
d="M113 817v486q0 6 -4 6h-74q-11 0 -6 6l30 112q1 7 9 7h157q6 0 6 -7v-610q0 -6 -6 -6h-106q-6 0 -6 6z" />
    <glyph glyph-name="ordmasculine" unicode="&#xba;" horiz-adv-x="584" 
d="M51 987v303q0 66 39 105t105 39h192q68 0 106.5 -39t38.5 -105v-303q0 -65 -38.5 -104t-104.5 -39h-192q-68 0 -107 38.5t-39 104.5zM401 1034v213q0 62 -53 62h-112q-54 0 -54 -62v-219q0 -61 54 -61h112q53 0 53 67z" />
    <glyph glyph-name="guillemotright" unicode="&#xbb;" horiz-adv-x="842" 
d="M559 1014l234 -484q6 -10 0 -20l-246 -500q-6 -10 -19 -10h-176q-10 0 -6 10l250 480q10 18 0 36l-240 488q-4 10 7 10h178q12 0 18 -10zM250 1014l246 -494q6 -10 0 -20l-246 -490q-6 -10 -19 -10h-176q-10 0 -6 10l250 469q10 19 0 37l-252 498q-4 10 6 10h178
q13 0 19 -10z" />
    <glyph glyph-name="onequarter" unicode="&#xbc;" horiz-adv-x="821" 
d="M127 0h-100q-7 0 -11 4t0 10l510 1405q6 15 19 15h100q14 0 8 -15l-510 -1405q-8 -14 -16 -14zM688 0h-104q-6 0 -6 8v162q0 6 -7 6h-178q-8 0 -8 8v80q0 15 8 49l68 301q0 9 8 9h104q11 0 7 -9l-80 -327q0 -6 4 -6h67q7 0 7 8v108q0 7 6 11l104 75q2 2 5 1t3 -5v-190
q0 -8 9 -8h36q7 0 7 -9v-88q0 -8 -7 -8h-36q-9 0 -9 -6v-162q0 -8 -8 -8zM113 817v486q0 6 -4 6h-74q-11 0 -6 6l30 112q1 7 9 7h157q6 0 6 -7v-610q0 -6 -6 -6h-106q-6 0 -6 6z" />
    <glyph glyph-name="onehalf" unicode="&#xbd;" horiz-adv-x="821" 
d="M127 0h-100q-7 0 -11 4t0 10l510 1405q6 15 19 15h100q14 0 8 -15l-510 -1405q-8 -14 -16 -14zM113 817v486q0 6 -4 6h-74q-11 0 -6 6l30 112q1 7 9 7h157q6 0 6 -7v-610q0 -6 -6 -6h-106q-6 0 -6 6zM721 0h-299q-10 0 -10 10v86q0 33 16 56l162 231q24 30 24 70v45
q0 8 -8 8h-82q-8 0 -8 -8v-86q0 -4 -3 -5t-5 1l-96 67q-6 6 -6 12v66q0 29 19 48.5t48 19.5h193q28 0 47.5 -19.5t19.5 -48.5v-113q0 -34 -8 -58.5t-31 -57.5l-143 -203q-6 -6 2 -6h168q8 0 8 -9v-98q0 -8 -8 -8z" />
    <glyph glyph-name="threequarters" unicode="&#xbe;" horiz-adv-x="948" 
d="M264 0h-100q-6 0 -10 4t0 10l510 1405q6 15 18 15h100q15 0 9 -15l-510 -1405q-9 -14 -17 -14zM825 0h-104q-6 0 -6 8v162q0 6 -6 6h-179q-8 0 -8 8v80q0 15 8 49l68 301q0 9 8 9h105q11 0 6 -9l-80 -327q0 -6 4 -6h68q6 0 6 8v108q0 7 6 11l104 75q2 2 5.5 1t3.5 -5
v-190q0 -8 8 -8h37q6 0 6 -9v-88q0 -8 -6 -8h-37q-8 0 -8 -6v-162q0 -8 -9 -8zM336 813h-199q-28 0 -47.5 19.5t-19.5 48.5v37q0 6 6 12l96 67q8 5 8 -4v-59q0 -10 8 -10h88q7 0 7 8v125q0 16 -15 16h-84q-4 0 -4 6l27 92q1 7 6 7h55q7 0 11 6.5t4 11.5v119q0 8 -7 8h-90
q-8 0 -8 -8v-68q0 -4 -3 -6t-5 0l-96 70q-6 6 -6 12v43q0 29 19 48.5t48 19.5h201q27 0 46 -19.5t19 -48.5v-166q0 -20 -12 -39t-27 -28q-6 -5 0 -9q14 -9 26.5 -30t12.5 -41v-172q0 -29 -19 -48.5t-46 -19.5z" />
    <glyph glyph-name="questiondown" unicode="&#xbf;" horiz-adv-x="666" 
d="M279 1040h122q15 0 15 -14l4 -264q2 -63 -5.5 -98.5t-33.5 -57.5l-117 -98q-18 -15 -18 -49v-254q0 -14 12 -14h170q12 0 12 14v235q0 7 6.5 10t10.5 -1l157 -119q11 -11 11 -21v-196q0 -47 -33 -80t-80 -33h-358q-47 0 -80 33t-33 80v381q0 100 59 141l119 82
q29 20 35 84l10 225q0 14 15 14zM229 1227v192q0 15 15 15h192q15 0 15 -15v-192q0 -15 -15 -15h-192q-15 0 -15 15z" />
    <glyph glyph-name="Agrave" unicode="&#xc0;" 
d="M276 471h127q11 0 11 10l-68 621q-1 5 -3.5 7t-5 0t-3.5 -7l-68 -621q0 -10 10 -10zM244 268l-29 -254q0 -14 -14 -14h-168q-13 0 -13 14l170 1405q0 15 13 15h280q13 0 13 -15l170 -1405q0 -14 -13 -14h-174q-14 0 -14 14l-29 254q0 8 -12 8h-168q-12 0 -12 -8z
M425 1482h-115q-9 0 -20 8l-138 131q-4 4 -3 8t7 4h203q11 0 15 -12l57 -129q4 -10 -6 -10z" />
    <glyph glyph-name="Aacute" unicode="&#xc1;" 
d="M276 471h127q11 0 11 10l-68 621q-1 5 -3.5 7t-5 0t-3.5 -7l-68 -621q0 -10 10 -10zM244 268l-29 -254q0 -14 -14 -14h-168q-13 0 -13 14l170 1405q0 15 13 15h280q13 0 13 -15l170 -1405q0 -14 -13 -14h-174q-14 0 -14 14l-29 254q0 8 -12 8h-168q-12 0 -12 -8z
M546 1621l-137 -131q-11 -8 -21 -8h-115q-10 0 -6 10l58 129q5 12 14 12h203q6 0 7 -4t-3 -8z" />
    <glyph glyph-name="Acircumflex" unicode="&#xc2;" 
d="M276 471h127q11 0 11 10l-68 621q-1 5 -3.5 7t-5 0t-3.5 -7l-68 -621q0 -10 10 -10zM244 268l-29 -254q0 -14 -14 -14h-168q-13 0 -13 14l170 1405q0 15 13 15h280q13 0 13 -15l170 -1405q0 -14 -13 -14h-174q-14 0 -14 14l-29 254q0 8 -12 8h-168q-12 0 -12 -8z
M256 1482h-102q-13 0 -7 10l95 129q8 12 16 12h180q8 0 17 -12l94 -129q6 -10 -6 -10h-107q-9 0 -22 8l-58 51q-10 7 -20 0l-57 -51q-14 -8 -23 -8z" />
    <glyph glyph-name="Atilde" unicode="&#xc3;" 
d="M276 471h127q11 0 11 10l-68 621q-1 5 -3.5 7t-5 0t-3.5 -7l-68 -621q0 -10 10 -10zM244 268l-29 -254q0 -14 -14 -14h-168q-13 0 -13 14l170 1405q0 15 13 15h280q13 0 13 -15l170 -1405q0 -14 -13 -14h-174q-14 0 -14 14l-29 254q0 8 -12 8h-168q-12 0 -12 -8z
M333 1639l76 -39q19 -8 21 6l7 35q2 8 16 8h82q5 0 7.5 -2t1.5 -6l-20 -90q-14 -57 -87 -57q-36 0 -63 12l-75 39q-19 7 -21 -6l-7 -35q-2 -8 -16 -8h-82q-5 0 -7.5 2t-1.5 6l20 90q14 57 87 57q35 0 62 -12z" />
    <glyph glyph-name="Adieresis" unicode="&#xc4;" 
d="M276 471h127q11 0 11 10l-68 621q-1 5 -3.5 7t-5 0t-3.5 -7l-68 -621q0 -10 10 -10zM244 268l-29 -254q0 -14 -14 -14h-168q-13 0 -13 14l170 1405q0 15 13 15h280q13 0 13 -15l170 -1405q0 -14 -13 -14h-174q-14 0 -14 14l-29 254q0 8 -12 8h-168q-12 0 -12 -8z
M303 1520h-149q-13 0 -13 10v131q0 12 13 12h149q12 0 12 -12v-131q0 -10 -12 -10zM539 1520h-150q-12 0 -12 10v131q0 12 12 12h150q12 0 12 -12v-131q0 -10 -12 -10z" />
    <glyph glyph-name="Aring" unicode="&#xc5;" 
d="M276 471h127q11 0 11 10l-68 621q-1 5 -3.5 7t-5 0t-3.5 -7l-68 -621q0 -10 10 -10zM244 268l-29 -254q0 -14 -14 -14h-168q-13 0 -13 14l170 1405q0 15 13 15h280q13 0 13 -15l170 -1405q0 -14 -13 -14h-174q-14 0 -14 14l-29 254q0 8 -12 8h-168q-12 0 -12 -8z
M461 1640v-69q0 -62 -72 -62h-90q-72 0 -72 62v69q0 26 19 45t53 19h90q34 0 53 -19t19 -45zM313 1563h62q26 0 26 24v39q0 25 -26 25h-62q-26 0 -26 -25v-39q0 -24 26 -24z" />
    <glyph glyph-name="AE" unicode="&#xc6;" horiz-adv-x="995" 
d="M326 471h129q10 0 10 10v647q-6 7 -10 -6l-140 -641q0 -10 11 -10zM270 268l-55 -254q-5 -14 -16 -14h-168q-16 0 -11 14l326 1405q5 15 14 15h592q13 0 13 -15v-170q0 -14 -13 -14h-270q-12 0 -12 -12v-338q0 -15 12 -15h236q15 0 10 -14l-47 -168q-5 -12 -17 -12h-182
q-12 0 -12 -12v-461q0 -13 12 -13h270q13 0 13 -14v-162q0 -14 -13 -14h-475q-17 0 -12 14v254q0 8 -12 8h-170q-13 0 -13 -8z" />
    <glyph glyph-name="Ccedilla" unicode="&#xc7;" horiz-adv-x="645" 
d="M442 -291h-245q-23 0 -40.5 17.5t-17.5 40.5v26q0 6 4 10l82 66q2 2 5 1t3 -5v-51q0 -13 11 -13h143q12 0 12 13v63q0 6 -6 6h-112q-7 0 -7 8l11 109h-113q-52 0 -86 36q-35 37 -35 87v1188q0 50 35 87q34 36 86 36h309q51 0 87 -36t36 -87v-275q0 -14 -12 -22l-166 -123
q-4 -4 -10 -1t-6 9v313q0 23 -23 23h-106q-25 0 -25 -23v-999q0 -9 7 -16t18 -7h106q9 0 16 7t7 16v367q0 6 6 9t10 -1l166 -123q12 -7 12 -21v-321q0 -51 -36 -87t-87 -36h-116l8 -41q1 -10 20 -10h53q28 0 44 -18t16 -52v-106q0 -28 -17.5 -46t-46.5 -18z" />
    <glyph glyph-name="Egrave" unicode="&#xc8;" horiz-adv-x="582" 
d="M63 1434h476q12 0 12 -15v-170q0 -14 -12 -14h-271q-12 0 -12 -12v-338q0 -15 12 -15h236q15 0 10 -14l-47 -168q-5 -12 -16 -12h-183q-12 0 -12 -12v-461q0 -13 12 -13h271q12 0 12 -14v-162q0 -14 -12 -14h-476q-12 0 -12 14v1405q0 15 12 15zM399 1482h-115
q-9 0 -20 8l-138 131q-4 4 -3 8t7 4h203q11 0 15 -12l57 -129q4 -10 -6 -10z" />
    <glyph glyph-name="Eacute" unicode="&#xc9;" horiz-adv-x="582" 
d="M63 1434h476q12 0 12 -15v-170q0 -14 -12 -14h-271q-12 0 -12 -12v-338q0 -15 12 -15h236q15 0 10 -14l-47 -168q-5 -12 -16 -12h-183q-12 0 -12 -12v-461q0 -13 12 -13h271q12 0 12 -14v-162q0 -14 -12 -14h-476q-12 0 -12 14v1405q0 15 12 15zM502 1621l-137 -131
q-11 -8 -21 -8h-115q-10 0 -6 10l58 129q5 12 14 12h203q6 0 7 -4t-3 -8z" />
    <glyph glyph-name="Ecircumflex" unicode="&#xca;" horiz-adv-x="582" 
d="M63 1434h476q12 0 12 -15v-170q0 -14 -12 -14h-271q-12 0 -12 -12v-338q0 -15 12 -15h236q15 0 10 -14l-47 -168q-5 -12 -16 -12h-183q-12 0 -12 -12v-461q0 -13 12 -13h271q12 0 12 -14v-162q0 -14 -12 -14h-476q-12 0 -12 14v1405q0 15 12 15zM215 1482h-102
q-13 0 -7 10l95 129q7 12 16 12h180q8 0 17 -12l94 -129q6 -10 -6 -10h-107q-9 0 -22 8l-58 51q-10 7 -20 0l-57 -51q-14 -8 -23 -8z" />
    <glyph glyph-name="Edieresis" unicode="&#xcb;" horiz-adv-x="582" 
d="M63 1434h476q12 0 12 -15v-170q0 -14 -12 -14h-271q-12 0 -12 -12v-338q0 -15 12 -15h236q15 0 10 -14l-47 -168q-5 -12 -16 -12h-183q-12 0 -12 -12v-461q0 -13 12 -13h271q12 0 12 -14v-162q0 -14 -12 -14h-476q-12 0 -12 14v1405q0 15 12 15zM270 1520h-149
q-12 0 -12 10v131q0 12 12 12h149q13 0 13 -12v-131q0 -10 -13 -10zM506 1520h-150q-12 0 -12 10v131q0 12 12 12h150q12 0 12 -12v-131q0 -10 -12 -10z" />
    <glyph glyph-name="Igrave" unicode="&#xcc;" horiz-adv-x="307" 
d="M244 0h-178q-15 0 -15 14v1405q0 15 15 15h178q12 0 12 -15v-1405q0 -14 -12 -14zM230 1482h-115q-9 0 -20 8l-138 131q-4 4 -3 8t7 4h203q10 0 15 -12l57 -129q4 -10 -6 -10z" />
    <glyph glyph-name="Iacute" unicode="&#xcd;" horiz-adv-x="307" 
d="M244 0h-178q-15 0 -15 14v1405q0 15 15 15h178q12 0 12 -15v-1405q0 -14 -12 -14zM356 1621l-137 -131q-11 -8 -21 -8h-115q-10 0 -6 10l58 129q5 12 14 12h203q6 0 7 -4t-3 -8z" />
    <glyph glyph-name="Icircumflex" unicode="&#xce;" horiz-adv-x="307" 
d="M244 0h-178q-15 0 -15 14v1405q0 15 15 15h178q12 0 12 -15v-1405q0 -14 -12 -14zM66 1520h-103q-12 0 -6 10l94 129q7 12 17 12h180q8 0 16 -12l94 -129q7 -10 -6 -10h-106q-9 0 -23 8l-57 51q-10 7 -21 0l-57 -51q-13 -8 -22 -8z" />
    <glyph glyph-name="Idieresis" unicode="&#xcf;" horiz-adv-x="307" 
d="M244 0h-178q-15 0 -15 14v1405q0 15 15 15h178q12 0 12 -15v-1405q0 -14 -12 -14zM113 1520h-150q-12 0 -12 10v131q0 12 12 12h150q12 0 12 -12v-131q0 -10 -12 -10zM348 1520h-149q-13 0 -13 10v131q0 12 13 12h149q12 0 12 -12v-131q0 -10 -12 -10z" />
    <glyph glyph-name="Eth" unicode="&#xd0;" horiz-adv-x="735" 
d="M530 0h-407q-12 0 -12 14v670q0 12 -13 12h-75q-15 0 -11 15l37 127q4 12 17 12h32q13 0 13 12v557q0 15 12 15h407q64 0 109 -46q45 -45 45 -108v-1126q0 -64 -45 -109t-109 -45zM328 190h118q13 0 23 10.5t10 22.5v979q0 12 -10 22.5t-23 10.5h-118q-13 0 -13 -12v-361
q0 -12 13 -12h73q16 0 11 -14l-37 -127q-4 -13 -17 -13h-30q-13 0 -13 -12v-481q0 -13 13 -13z" />
    <glyph glyph-name="Ntilde" unicode="&#xd1;" horiz-adv-x="698" 
d="M233 985l9 -971q0 -14 -13 -14h-163q-15 0 -15 14v1405q0 15 15 15h182q8 0 16 -15l185 -506q2 -5 5 -6.5t5 1t2 7.5l-4 504q0 15 14 15h164q12 0 12 -15v-1405q0 -14 -12 -14h-160q-14 0 -14 14l-2 379q0 19 -6 35l-207 559q-4 8 -8.5 8t-4.5 -10zM324 1663l79 -39
q19 -8 21 6l8 35q2 8 17 8h86q10 0 8 -8l-21 -90q-14 -57 -90 -57q-39 0 -65 12l-80 39q-19 7 -21 -6l-8 -35q-2 -8 -16 -8h-86q-5 0 -7.5 2t-1.5 6l21 90q14 57 90 57q38 0 66 -12z" />
    <glyph glyph-name="Ograve" unicode="&#xd2;" 
d="M512 0h-340q-52 0 -86 36q-35 37 -35 87v1188q0 50 35 87q34 36 86 36h340q51 0 87 -36t36 -87v-1188q0 -51 -36 -87t-87 -36zM281 190h127q9 0 15.5 7t6.5 16v999q0 23 -22 23h-127q-25 0 -25 -23v-999q0 -9 7 -16t18 -7zM431 1482h-115q-9 0 -20 8l-138 131q-4 4 -3 8
t7 4h203q11 0 15 -12l57 -129q4 -10 -6 -10z" />
    <glyph glyph-name="Oacute" unicode="&#xd3;" 
d="M512 0h-340q-52 0 -86 36q-35 37 -35 87v1188q0 50 35 87q34 36 86 36h340q51 0 87 -36t36 -87v-1188q0 -51 -36 -87t-87 -36zM281 190h127q9 0 15.5 7t6.5 16v999q0 23 -22 23h-127q-25 0 -25 -23v-999q0 -9 7 -16t18 -7zM548 1621l-137 -131q-11 -8 -21 -8h-115
q-10 0 -6 10l58 129q5 12 14 12h203q6 0 7 -4t-3 -8z" />
    <glyph glyph-name="Ocircumflex" unicode="&#xd4;" 
d="M512 0h-340q-52 0 -86 36q-35 37 -35 87v1188q0 50 35 87q34 36 86 36h340q51 0 87 -36t36 -87v-1188q0 -51 -36 -87t-87 -36zM281 190h127q9 0 15.5 7t6.5 16v999q0 23 -22 23h-127q-25 0 -25 -23v-999q0 -9 7 -16t18 -7zM256 1482h-102q-13 0 -7 10l95 129q8 12 16 12
h180q8 0 17 -12l94 -129q6 -10 -6 -10h-107q-9 0 -22 8l-58 51q-10 7 -20 0l-57 -51q-14 -8 -23 -8z" />
    <glyph glyph-name="Otilde" unicode="&#xd5;" 
d="M512 0h-340q-52 0 -86 36q-35 37 -35 87v1188q0 50 35 87q34 36 86 36h340q51 0 87 -36t36 -87v-1188q0 -51 -36 -87t-87 -36zM281 190h127q9 0 15.5 7t6.5 16v999q0 23 -22 23h-127q-25 0 -25 -23v-999q0 -9 7 -16t18 -7zM330 1639l76 -39q20 -8 21 6l7 35q2 8 16 8h82
q5 0 7.5 -2t1.5 -6l-20 -90q-14 -57 -87 -57q-36 0 -63 12l-75 39q-20 7 -21 -6l-7 -35q-2 -8 -16 -8h-82q-5 0 -7.5 2t-1.5 6l20 90q14 57 87 57q35 0 62 -12z" />
    <glyph glyph-name="Odieresis" unicode="&#xd6;" 
d="M512 0h-340q-52 0 -86 36q-35 37 -35 87v1188q0 50 35 87q34 36 86 36h340q51 0 87 -36t36 -87v-1188q0 -51 -36 -87t-87 -36zM281 190h127q9 0 15.5 7t6.5 16v999q0 23 -22 23h-127q-25 0 -25 -23v-999q0 -9 7 -16t18 -7zM303 1520h-149q-13 0 -13 10v131q0 12 13 12
h149q12 0 12 -12v-131q0 -10 -12 -10zM539 1520h-150q-12 0 -12 10v131q0 12 12 12h150q12 0 12 -12v-131q0 -10 -12 -10z" />
    <glyph glyph-name="Oslash" unicode="&#xd8;" horiz-adv-x="707" 
d="M266 1212v-614l174 449v165q0 23 -22 23h-127q-25 0 -25 -23zM291 190h127q9 0 15.5 7t6.5 16v604l-174 -448v-156q0 -8 7.5 -15.5t17.5 -7.5zM106 37l-10 -23q-8 -14 -16 -14h-68q-6 0 -10 4t0 10l59 127v1170q0 50 35 87q34 36 86 36h330q54 0 88 -39l12 24q6 15 19 15
h65q15 0 9 -15l-60 -125v-1171q0 -51 -36 -87t-87 -36h-329q-50 0 -87 37z" />
    <glyph glyph-name="Ugrave" unicode="&#xd9;" horiz-adv-x="666" 
d="M424 1434h178q12 0 12 -15v-1308q0 -49 -37 -80q-35 -31 -81 -31h-336q-46 0 -77 33q-32 34 -32 73v1313q0 15 12 15h179q14 0 14 -15v-1216q0 -13 12 -13h129q13 0 13 13v1216q0 15 14 15zM410 1482h-115q-9 0 -20 8l-138 131q-4 4 -3 8t7 4h203q10 0 15 -12l57 -129
q4 -10 -6 -10z" />
    <glyph glyph-name="Uacute" unicode="&#xda;" horiz-adv-x="666" 
d="M424 1434h178q12 0 12 -15v-1308q0 -49 -37 -80q-35 -31 -81 -31h-336q-46 0 -77 33q-32 34 -32 73v1313q0 15 12 15h179q14 0 14 -15v-1216q0 -13 12 -13h129q13 0 13 13v1216q0 15 14 15zM544 1621l-137 -131q-11 -8 -21 -8h-115q-10 0 -6 10l58 129q5 12 14 12h203
q6 0 7 -4t-3 -8z" />
    <glyph glyph-name="Ucircumflex" unicode="&#xdb;" horiz-adv-x="666" 
d="M424 1434h178q12 0 12 -15v-1308q0 -49 -37 -80q-35 -31 -81 -31h-336q-46 0 -77 33q-32 34 -32 73v1313q0 15 12 15h179q14 0 14 -15v-1216q0 -13 12 -13h129q13 0 13 13v1216q0 15 14 15zM246 1520h-103q-12 0 -6 10l94 129q9 12 17 12h180q9 0 16 -12l95 -129
q6 -10 -7 -10h-106q-9 0 -23 8l-57 51q-10 7 -20 0l-58 -51q-13 -8 -22 -8z" />
    <glyph glyph-name="Udieresis" unicode="&#xdc;" horiz-adv-x="666" 
d="M424 1434h178q12 0 12 -15v-1308q0 -49 -37 -80q-35 -31 -81 -31h-336q-46 0 -77 33q-32 34 -32 73v1313q0 15 12 15h179q14 0 14 -15v-1216q0 -13 12 -13h129q13 0 13 13v1216q0 15 14 15zM293 1520h-150q-12 0 -12 10v131q0 12 12 12h150q12 0 12 -12v-131
q0 -10 -12 -10zM528 1520h-149q-12 0 -12 10v131q0 12 12 12h149q13 0 13 -12v-131q0 -10 -13 -10z" />
    <glyph glyph-name="Yacute" unicode="&#xdd;" horiz-adv-x="653" 
d="M416 0h-178q-15 0 -15 14v598q0 22 -10 39l-147 287q-16 31 -20.5 54t-4.5 63v364q0 15 14 15h174q13 0 13 -15v-344q0 -33 4 -49q5 -19 18 -47l55 -111q9 -17 17 0l53 111q13 28 18 47q5 20 5 49v344q0 15 12 15h174q14 0 14 -15v-364q0 -67 -24 -117l-150 -291
q-10 -17 -10 -39v-594q0 -14 -12 -14zM536 1621l-137 -131q-11 -8 -21 -8h-115q-10 0 -6 10l58 129q5 12 14 12h203q6 0 7 -4t-3 -8z" />
    <glyph glyph-name="Thorn" unicode="&#xde;" horiz-adv-x="666" 
d="M256 1419v-219q0 -12 12 -12h234q47 0 79.5 -33t32.5 -80v-430q0 -48 -18.5 -82.5t-60.5 -66.5l-271 -197q-8 -8 -8 -25v-260q0 -14 -12 -14h-178q-15 0 -15 14v1405q0 15 15 15h178q12 0 12 -15zM268 543l119 86q27 19 27 45v307q0 12 -13 12h-133q-12 0 -12 -12v-432
q0 -5 3 -7t9 1z" />
    <glyph glyph-name="germandbls" unicode="&#xdf;" horiz-adv-x="961" 
d="M369 817q0 65 34 107l226 286q6 8 8 15.5t-1.5 12.5t-12.5 5h-355q-12 0 -12 -12v-1217q0 -14 -12 -14h-178q-15 0 -15 14v1307q0 47 33 80t80 33h571q47 0 83 -33t36 -80v-92q0 -40 -37 -84l-233 -287q-14 -17 -15 -24.5t13 -18.5l270 -215q57 -46 57 -96v-391
q0 -47 -36 -80q-35 -33 -82 -33h-308q-47 0 -79.5 33t-32.5 80v383q0 6 6 9t10 -1l152 -111q12 -7 12 -20v-185q0 -12 12 -12h135q13 0 13 12v258q0 15 -11 21l-237 186q-57 45 -75.5 78t-18.5 86z" />
    <glyph glyph-name="agrave" unicode="&#xe0;" 
d="M276 471h127q11 0 11 10l-68 621q-1 5 -3.5 7t-5 0t-3.5 -7l-68 -621q0 -10 10 -10zM244 268l-29 -254q0 -14 -14 -14h-168q-13 0 -13 14l170 1405q0 15 13 15h280q13 0 13 -15l170 -1405q0 -14 -13 -14h-174q-14 0 -14 14l-29 254q0 8 -12 8h-168q-12 0 -12 -8z
M425 1482h-115q-9 0 -20 8l-138 131q-4 4 -3 8t7 4h203q11 0 15 -12l57 -129q4 -10 -6 -10z" />
    <glyph glyph-name="aacute" unicode="&#xe1;" 
d="M276 471h127q11 0 11 10l-68 621q-1 5 -3.5 7t-5 0t-3.5 -7l-68 -621q0 -10 10 -10zM244 268l-29 -254q0 -14 -14 -14h-168q-13 0 -13 14l170 1405q0 15 13 15h280q13 0 13 -15l170 -1405q0 -14 -13 -14h-174q-14 0 -14 14l-29 254q0 8 -12 8h-168q-12 0 -12 -8z
M546 1621l-137 -131q-11 -8 -21 -8h-115q-10 0 -6 10l58 129q5 12 14 12h203q6 0 7 -4t-3 -8z" />
    <glyph glyph-name="acircumflex" unicode="&#xe2;" 
d="M276 471h127q11 0 11 10l-68 621q-1 5 -3.5 7t-5 0t-3.5 -7l-68 -621q0 -10 10 -10zM244 268l-29 -254q0 -14 -14 -14h-168q-13 0 -13 14l170 1405q0 15 13 15h280q13 0 13 -15l170 -1405q0 -14 -13 -14h-174q-14 0 -14 14l-29 254q0 8 -12 8h-168q-12 0 -12 -8z
M256 1482h-102q-13 0 -7 10l95 129q8 12 16 12h180q8 0 17 -12l94 -129q6 -10 -6 -10h-107q-9 0 -22 8l-58 51q-10 7 -20 0l-57 -51q-14 -8 -23 -8z" />
    <glyph glyph-name="atilde" unicode="&#xe3;" 
d="M276 471h127q11 0 11 10l-68 621q-1 5 -3.5 7t-5 0t-3.5 -7l-68 -621q0 -10 10 -10zM244 268l-29 -254q0 -14 -14 -14h-168q-13 0 -13 14l170 1405q0 15 13 15h280q13 0 13 -15l170 -1405q0 -14 -13 -14h-174q-14 0 -14 14l-29 254q0 8 -12 8h-168q-12 0 -12 -8z
M333 1639l76 -39q19 -8 21 6l7 35q2 8 16 8h82q5 0 7.5 -2t1.5 -6l-20 -90q-14 -57 -87 -57q-36 0 -63 12l-75 39q-19 7 -21 -6l-7 -35q-2 -8 -16 -8h-82q-5 0 -7.5 2t-1.5 6l20 90q14 57 87 57q35 0 62 -12z" />
    <glyph glyph-name="adieresis" unicode="&#xe4;" 
d="M276 471h127q11 0 11 10l-68 621q-1 5 -3.5 7t-5 0t-3.5 -7l-68 -621q0 -10 10 -10zM244 268l-29 -254q0 -14 -14 -14h-168q-13 0 -13 14l170 1405q0 15 13 15h280q13 0 13 -15l170 -1405q0 -14 -13 -14h-174q-14 0 -14 14l-29 254q0 8 -12 8h-168q-12 0 -12 -8z
M303 1520h-149q-13 0 -13 10v131q0 12 13 12h149q12 0 12 -12v-131q0 -10 -12 -10zM539 1520h-150q-12 0 -12 10v131q0 12 12 12h150q12 0 12 -12v-131q0 -10 -12 -10z" />
    <glyph glyph-name="aring" unicode="&#xe5;" 
d="M276 471h127q11 0 11 10l-68 621q-1 5 -3.5 7t-5 0t-3.5 -7l-68 -621q0 -10 10 -10zM244 268l-29 -254q0 -14 -14 -14h-168q-13 0 -13 14l170 1405q0 15 13 15h280q13 0 13 -15l170 -1405q0 -14 -13 -14h-174q-14 0 -14 14l-29 254q0 8 -12 8h-168q-12 0 -12 -8z
M461 1640v-69q0 -62 -72 -62h-90q-72 0 -72 62v69q0 26 19 45t53 19h90q34 0 53 -19t19 -45zM313 1563h62q26 0 26 24v39q0 25 -26 25h-62q-26 0 -26 -25v-39q0 -24 26 -24z" />
    <glyph glyph-name="ae" unicode="&#xe6;" horiz-adv-x="995" 
d="M326 471h129q10 0 10 10v647q-6 7 -10 -6l-140 -641q0 -10 11 -10zM270 268l-55 -254q-5 -14 -16 -14h-168q-16 0 -11 14l326 1405q5 15 14 15h592q13 0 13 -15v-170q0 -14 -13 -14h-270q-12 0 -12 -12v-338q0 -15 12 -15h236q15 0 10 -14l-47 -168q-5 -12 -17 -12h-182
q-12 0 -12 -12v-461q0 -13 12 -13h270q13 0 13 -14v-162q0 -14 -13 -14h-475q-17 0 -12 14v254q0 8 -12 8h-170q-13 0 -13 -8z" />
    <glyph glyph-name="ccedilla" unicode="&#xe7;" horiz-adv-x="645" 
d="M442 -291h-245q-23 0 -40.5 17.5t-17.5 40.5v26q0 6 4 10l82 66q2 2 5 1t3 -5v-51q0 -13 11 -13h143q12 0 12 13v63q0 6 -6 6h-112q-7 0 -7 8l11 109h-113q-52 0 -86 36q-35 37 -35 87v1188q0 50 35 87q34 36 86 36h309q51 0 87 -36t36 -87v-275q0 -14 -12 -22l-166 -123
q-4 -4 -10 -1t-6 9v313q0 23 -23 23h-106q-25 0 -25 -23v-999q0 -9 7 -16t18 -7h106q9 0 16 7t7 16v367q0 6 6 9t10 -1l166 -123q12 -7 12 -21v-321q0 -51 -36 -87t-87 -36h-116l8 -41q1 -10 20 -10h53q28 0 44 -18t16 -52v-106q0 -28 -17.5 -46t-46.5 -18z" />
    <glyph glyph-name="egrave" unicode="&#xe8;" horiz-adv-x="582" 
d="M63 1434h476q12 0 12 -15v-170q0 -14 -12 -14h-271q-12 0 -12 -12v-338q0 -15 12 -15h236q15 0 10 -14l-47 -168q-5 -12 -16 -12h-183q-12 0 -12 -12v-461q0 -13 12 -13h271q12 0 12 -14v-162q0 -14 -12 -14h-476q-12 0 -12 14v1405q0 15 12 15zM399 1482h-115
q-9 0 -20 8l-138 131q-4 4 -3 8t7 4h203q11 0 15 -12l57 -129q4 -10 -6 -10z" />
    <glyph glyph-name="eacute" unicode="&#xe9;" horiz-adv-x="582" 
d="M63 1434h476q12 0 12 -15v-170q0 -14 -12 -14h-271q-12 0 -12 -12v-338q0 -15 12 -15h236q15 0 10 -14l-47 -168q-5 -12 -16 -12h-183q-12 0 -12 -12v-461q0 -13 12 -13h271q12 0 12 -14v-162q0 -14 -12 -14h-476q-12 0 -12 14v1405q0 15 12 15zM502 1621l-137 -131
q-11 -8 -21 -8h-115q-10 0 -6 10l58 129q5 12 14 12h203q6 0 7 -4t-3 -8z" />
    <glyph glyph-name="ecircumflex" unicode="&#xea;" horiz-adv-x="582" 
d="M63 1434h476q12 0 12 -15v-170q0 -14 -12 -14h-271q-12 0 -12 -12v-338q0 -15 12 -15h236q15 0 10 -14l-47 -168q-5 -12 -16 -12h-183q-12 0 -12 -12v-461q0 -13 12 -13h271q12 0 12 -14v-162q0 -14 -12 -14h-476q-12 0 -12 14v1405q0 15 12 15zM215 1482h-102
q-13 0 -7 10l95 129q7 12 16 12h180q8 0 17 -12l94 -129q6 -10 -6 -10h-107q-9 0 -22 8l-58 51q-10 7 -20 0l-57 -51q-14 -8 -23 -8z" />
    <glyph glyph-name="edieresis" unicode="&#xeb;" horiz-adv-x="582" 
d="M63 1434h476q12 0 12 -15v-170q0 -14 -12 -14h-271q-12 0 -12 -12v-338q0 -15 12 -15h236q15 0 10 -14l-47 -168q-5 -12 -16 -12h-183q-12 0 -12 -12v-461q0 -13 12 -13h271q12 0 12 -14v-162q0 -14 -12 -14h-476q-12 0 -12 14v1405q0 15 12 15zM270 1520h-149
q-12 0 -12 10v131q0 12 12 12h149q13 0 13 -12v-131q0 -10 -13 -10zM506 1520h-150q-12 0 -12 10v131q0 12 12 12h150q12 0 12 -12v-131q0 -10 -12 -10z" />
    <glyph glyph-name="igrave" unicode="&#xec;" horiz-adv-x="307" 
d="M244 0h-178q-15 0 -15 14v1405q0 15 15 15h178q12 0 12 -15v-1405q0 -14 -12 -14zM230 1482h-115q-9 0 -20 8l-138 131q-4 4 -3 8t7 4h203q10 0 15 -12l57 -129q4 -10 -6 -10z" />
    <glyph glyph-name="iacute" unicode="&#xed;" horiz-adv-x="307" 
d="M244 0h-178q-15 0 -15 14v1405q0 15 15 15h178q12 0 12 -15v-1405q0 -14 -12 -14zM356 1621l-137 -131q-11 -8 -21 -8h-115q-10 0 -6 10l58 129q5 12 14 12h203q6 0 7 -4t-3 -8z" />
    <glyph glyph-name="icircumflex" unicode="&#xee;" horiz-adv-x="307" 
d="M244 0h-178q-15 0 -15 14v1405q0 15 15 15h178q12 0 12 -15v-1405q0 -14 -12 -14zM66 1520h-103q-12 0 -6 10l94 129q7 12 17 12h180q8 0 16 -12l94 -129q7 -10 -6 -10h-106q-9 0 -23 8l-57 51q-10 7 -21 0l-57 -51q-13 -8 -22 -8z" />
    <glyph glyph-name="idieresis" unicode="&#xef;" horiz-adv-x="307" 
d="M244 0h-178q-15 0 -15 14v1405q0 15 15 15h178q12 0 12 -15v-1405q0 -14 -12 -14zM113 1520h-150q-12 0 -12 10v131q0 12 12 12h150q12 0 12 -12v-131q0 -10 -12 -10zM348 1520h-149q-13 0 -13 10v131q0 12 13 12h149q12 0 12 -12v-131q0 -10 -12 -10z" />
    <glyph glyph-name="eth" unicode="&#xf0;" horiz-adv-x="735" 
d="M530 0h-407q-12 0 -12 14v670q0 12 -13 12h-75q-15 0 -11 15l37 127q4 12 17 12h32q13 0 13 12v557q0 15 12 15h407q64 0 109 -46q45 -45 45 -108v-1126q0 -64 -45 -109t-109 -45zM328 190h118q13 0 23 10.5t10 22.5v979q0 12 -10 22.5t-23 10.5h-118q-13 0 -13 -12v-361
q0 -12 13 -12h73q16 0 11 -14l-37 -127q-4 -13 -17 -13h-30q-13 0 -13 -12v-481q0 -13 13 -13z" />
    <glyph glyph-name="ntilde" unicode="&#xf1;" horiz-adv-x="698" 
d="M233 985l9 -971q0 -14 -13 -14h-163q-15 0 -15 14v1405q0 15 15 15h182q8 0 16 -15l185 -506q2 -5 5 -6.5t5 1t2 7.5l-4 504q0 15 14 15h164q12 0 12 -15v-1405q0 -14 -12 -14h-160q-14 0 -14 14l-2 379q0 19 -6 35l-207 559q-4 8 -8.5 8t-4.5 -10zM324 1663l79 -39
q19 -8 21 6l8 35q2 8 17 8h86q10 0 8 -8l-21 -90q-14 -57 -90 -57q-39 0 -65 12l-80 39q-19 7 -21 -6l-8 -35q-2 -8 -16 -8h-86q-5 0 -7.5 2t-1.5 6l21 90q14 57 90 57q38 0 66 -12z" />
    <glyph glyph-name="ograve" unicode="&#xf2;" 
d="M512 0h-340q-52 0 -86 36q-35 37 -35 87v1188q0 50 35 87q34 36 86 36h340q51 0 87 -36t36 -87v-1188q0 -51 -36 -87t-87 -36zM281 190h127q9 0 15.5 7t6.5 16v999q0 23 -22 23h-127q-25 0 -25 -23v-999q0 -9 7 -16t18 -7zM431 1482h-115q-9 0 -20 8l-138 131q-4 4 -3 8
t7 4h203q11 0 15 -12l57 -129q4 -10 -6 -10z" />
    <glyph glyph-name="oacute" unicode="&#xf3;" 
d="M512 0h-340q-52 0 -86 36q-35 37 -35 87v1188q0 50 35 87q34 36 86 36h340q51 0 87 -36t36 -87v-1188q0 -51 -36 -87t-87 -36zM281 190h127q9 0 15.5 7t6.5 16v999q0 23 -22 23h-127q-25 0 -25 -23v-999q0 -9 7 -16t18 -7zM548 1621l-137 -131q-11 -8 -21 -8h-115
q-10 0 -6 10l58 129q5 12 14 12h203q6 0 7 -4t-3 -8z" />
    <glyph glyph-name="ocircumflex" unicode="&#xf4;" 
d="M512 0h-340q-52 0 -86 36q-35 37 -35 87v1188q0 50 35 87q34 36 86 36h340q51 0 87 -36t36 -87v-1188q0 -51 -36 -87t-87 -36zM281 190h127q9 0 15.5 7t6.5 16v999q0 23 -22 23h-127q-25 0 -25 -23v-999q0 -9 7 -16t18 -7zM256 1482h-102q-13 0 -7 10l95 129q8 12 16 12
h180q8 0 17 -12l94 -129q6 -10 -6 -10h-107q-9 0 -22 8l-58 51q-10 7 -20 0l-57 -51q-14 -8 -23 -8z" />
    <glyph glyph-name="otilde" unicode="&#xf5;" 
d="M512 0h-340q-52 0 -86 36q-35 37 -35 87v1188q0 50 35 87q34 36 86 36h340q51 0 87 -36t36 -87v-1188q0 -51 -36 -87t-87 -36zM281 190h127q9 0 15.5 7t6.5 16v999q0 23 -22 23h-127q-25 0 -25 -23v-999q0 -9 7 -16t18 -7zM330 1639l76 -39q20 -8 21 6l7 35q2 8 16 8h82
q5 0 7.5 -2t1.5 -6l-20 -90q-14 -57 -87 -57q-36 0 -63 12l-75 39q-20 7 -21 -6l-7 -35q-2 -8 -16 -8h-82q-5 0 -7.5 2t-1.5 6l20 90q14 57 87 57q35 0 62 -12z" />
    <glyph glyph-name="odieresis" unicode="&#xf6;" 
d="M512 0h-340q-52 0 -86 36q-35 37 -35 87v1188q0 50 35 87q34 36 86 36h340q51 0 87 -36t36 -87v-1188q0 -51 -36 -87t-87 -36zM281 190h127q9 0 15.5 7t6.5 16v999q0 23 -22 23h-127q-25 0 -25 -23v-999q0 -9 7 -16t18 -7zM303 1520h-149q-13 0 -13 10v131q0 12 13 12
h149q12 0 12 -12v-131q0 -10 -12 -10zM539 1520h-150q-12 0 -12 10v131q0 12 12 12h150q12 0 12 -12v-131q0 -10 -12 -10z" />
    <glyph glyph-name="oslash" unicode="&#xf8;" horiz-adv-x="727" 
d="M266 1212v-614l174 449v165q0 23 -22 23h-127q-25 0 -25 -23zM291 190h127q9 0 15.5 7t6.5 16v604l-174 -448v-156q0 -8 7.5 -15.5t17.5 -7.5zM106 37l-10 -23q-8 -14 -16 -14h-68q-6 0 -10 4t0 10l59 127v1170q0 50 35 87q34 36 86 36h330q54 0 88 -39l12 24q6 15 19 15
h65q15 0 9 -15l-60 -125v-1171q0 -51 -36 -87t-87 -36h-329q-50 0 -87 37z" />
    <glyph glyph-name="ugrave" unicode="&#xf9;" horiz-adv-x="666" 
d="M424 1434h178q12 0 12 -15v-1308q0 -49 -37 -80q-35 -31 -81 -31h-336q-46 0 -77 33q-32 34 -32 73v1313q0 15 12 15h179q14 0 14 -15v-1216q0 -13 12 -13h129q13 0 13 13v1216q0 15 14 15zM410 1482h-115q-9 0 -20 8l-138 131q-4 4 -3 8t7 4h203q10 0 15 -12l57 -129
q4 -10 -6 -10z" />
    <glyph glyph-name="uacute" unicode="&#xfa;" horiz-adv-x="666" 
d="M424 1434h178q12 0 12 -15v-1308q0 -49 -37 -80q-35 -31 -81 -31h-336q-46 0 -77 33q-32 34 -32 73v1313q0 15 12 15h179q14 0 14 -15v-1216q0 -13 12 -13h129q13 0 13 13v1216q0 15 14 15zM544 1621l-137 -131q-11 -8 -21 -8h-115q-10 0 -6 10l58 129q5 12 14 12h203
q6 0 7 -4t-3 -8z" />
    <glyph glyph-name="ucircumflex" unicode="&#xfb;" horiz-adv-x="666" 
d="M424 1434h178q12 0 12 -15v-1308q0 -49 -37 -80q-35 -31 -81 -31h-336q-46 0 -77 33q-32 34 -32 73v1313q0 15 12 15h179q14 0 14 -15v-1216q0 -13 12 -13h129q13 0 13 13v1216q0 15 14 15zM246 1520h-103q-12 0 -6 10l94 129q9 12 17 12h180q9 0 16 -12l95 -129
q6 -10 -7 -10h-106q-9 0 -23 8l-57 51q-10 7 -20 0l-58 -51q-13 -8 -22 -8z" />
    <glyph glyph-name="udieresis" unicode="&#xfc;" horiz-adv-x="666" 
d="M424 1434h178q12 0 12 -15v-1308q0 -49 -37 -80q-35 -31 -81 -31h-336q-46 0 -77 33q-32 34 -32 73v1313q0 15 12 15h179q14 0 14 -15v-1216q0 -13 12 -13h129q13 0 13 13v1216q0 15 14 15zM293 1520h-150q-12 0 -12 10v131q0 12 12 12h150q12 0 12 -12v-131
q0 -10 -12 -10zM528 1520h-149q-12 0 -12 10v131q0 12 12 12h149q13 0 13 -12v-131q0 -10 -13 -10z" />
    <glyph glyph-name="yacute" unicode="&#xfd;" horiz-adv-x="653" 
d="M416 0h-178q-15 0 -15 14v598q0 22 -10 39l-147 287q-16 31 -20.5 54t-4.5 63v364q0 15 14 15h174q13 0 13 -15v-344q0 -33 4 -49q5 -19 18 -47l55 -111q9 -17 17 0l53 111q13 28 18 47q5 20 5 49v344q0 15 12 15h174q14 0 14 -15v-364q0 -67 -24 -117l-150 -291
q-10 -17 -10 -39v-594q0 -14 -12 -14zM536 1621l-137 -131q-11 -8 -21 -8h-115q-10 0 -6 10l58 129q5 12 14 12h203q6 0 7 -4t-3 -8z" />
    <glyph glyph-name="thorn" unicode="&#xfe;" horiz-adv-x="666" 
d="M256 1419v-219q0 -12 12 -12h234q47 0 79.5 -33t32.5 -80v-430q0 -48 -18.5 -82.5t-60.5 -66.5l-271 -197q-8 -8 -8 -25v-260q0 -14 -12 -14h-178q-15 0 -15 14v1405q0 15 15 15h178q12 0 12 -15zM268 543l119 86q27 19 27 45v307q0 12 -13 12h-133q-12 0 -12 -12v-432
q0 -5 3 -7t9 1z" />
    <glyph glyph-name="ydieresis" unicode="&#xff;" horiz-adv-x="653" 
d="M416 0h-178q-15 0 -15 14v598q0 22 -10 39l-147 287q-16 31 -20.5 54t-4.5 63v364q0 15 14 15h174q13 0 13 -15v-344q0 -33 4 -49q5 -19 18 -47l55 -111q9 -17 17 0l53 111q13 28 18 47q5 20 5 49v344q0 15 12 15h174q14 0 14 -15v-364q0 -67 -24 -117l-150 -291
q-10 -17 -10 -39v-594q0 -14 -12 -14zM287 1520h-150q-12 0 -12 10v131q0 12 12 12h150q12 0 12 -12v-131q0 -10 -12 -10zM522 1520h-149q-13 0 -13 10v131q0 12 13 12h149q13 0 13 -12v-131q0 -10 -13 -10z" />
    <glyph glyph-name="Abreve" unicode="&#x102;" 
d="M451 1482h-224q-25 0 -43 18.5t-18 43.5v90h119v-42q0 -4 3.5 -8t8.5 -4h86q11 0 11 12v42h119v-90q0 -25 -18.5 -43.5t-43.5 -18.5zM403 471h-127q-10 0 -10 10l68 621q1 5 3.5 7t5 0t3.5 -7l68 -621q0 -10 -11 -10zM215 14l29 254q0 8 12 8h168q12 0 12 -8l29 -254
q0 -14 14 -14h174q13 0 13 14l-170 1405q0 15 -13 15h-280q-13 0 -13 -15l-170 -1405q0 -14 13 -14h168q14 0 14 14z" />
    <glyph glyph-name="abreve" unicode="&#x103;" 
d="M451 1482h-224q-25 0 -43 18.5t-18 43.5v90h119v-42q0 -4 3.5 -8t8.5 -4h86q11 0 11 12v42h119v-90q0 -25 -18.5 -43.5t-43.5 -18.5zM403 471h-127q-10 0 -10 10l68 621q1 5 3.5 7t5 0t3.5 -7l68 -621q0 -10 -11 -10zM215 14l29 254q0 8 12 8h168q12 0 12 -8l29 -254
q0 -14 14 -14h174q13 0 13 14l-170 1405q0 15 -13 15h-280q-13 0 -13 -15l-170 -1405q0 -14 13 -14h168q14 0 14 14z" />
    <glyph glyph-name="Dcroat" unicode="&#x110;" horiz-adv-x="676" 
d="M63 1434h408q64 0 109 -46q45 -45 45 -108v-1126q0 -64 -45 -109t-109 -45h-408q-12 0 -12 14v636h-79q-15 0 -10 14l41 148q5 12 16 12h32v595q0 15 12 15zM268 190h119q12 0 22.5 10.5t10.5 22.5v979q0 12 -10.5 22.5t-22.5 10.5h-119q-12 0 -12 -12v-399h79
q15 0 10 -14l-41 -148q-4 -12 -17 -12h-31v-447q0 -13 12 -13z" />
    <glyph glyph-name="dcroat" unicode="&#x111;" horiz-adv-x="676" 
d="M63 1434h408q64 0 109 -46q45 -45 45 -108v-1126q0 -64 -45 -109t-109 -45h-408q-12 0 -12 14v636h-79q-15 0 -10 14l41 148q5 12 16 12h32v595q0 15 12 15zM268 190h119q12 0 22.5 10.5t10.5 22.5v979q0 12 -10.5 22.5t-22.5 10.5h-119q-12 0 -12 -12v-399h79
q15 0 10 -14l-41 -148q-4 -12 -17 -12h-31v-447q0 -13 12 -13z" />
    <glyph glyph-name="Itilde" unicode="&#x128;" horiz-adv-x="307" 
d="M137 1639l76 -39q19 -8 21 6l7 35q2 8 16 8h82q5 0 7.5 -2t1.5 -6l-20 -90q-14 -57 -87 -57q-36 0 -63 12l-75 39q-19 7 -21 -6l-7 -35q-2 -8 -16 -8h-82q-5 0 -7.5 2t-1.5 6l20 90q14 57 87 57q35 0 62 -12zM244 0h-178q-15 0 -15 14v1405q0 15 15 15h178q12 0 12 -15
v-1405q0 -14 -12 -14z" />
    <glyph glyph-name="itilde" unicode="&#x129;" horiz-adv-x="307" 
d="M137 1639l76 -39q19 -8 21 6l7 35q2 8 16 8h82q5 0 7.5 -2t1.5 -6l-20 -90q-14 -57 -87 -57q-36 0 -63 12l-75 39q-19 7 -21 -6l-7 -35q-2 -8 -16 -8h-82q-5 0 -7.5 2t-1.5 6l20 90q14 57 87 57q35 0 62 -12zM244 0h-178q-15 0 -15 14v1405q0 15 15 15h178q12 0 12 -15
v-1405q0 -14 -12 -14z" />
    <glyph glyph-name="dotlessi" unicode="&#x131;" horiz-adv-x="514" 
 />
    <glyph glyph-name="Utilde" unicode="&#x168;" horiz-adv-x="666" 
d="M317 1639l76 -39q19 -8 21 6l7 35q2 8 16 8h82q5 0 7.5 -2t1.5 -6l-20 -90q-14 -57 -87 -57q-36 0 -63 12l-75 39q-19 7 -21 -6l-7 -35q-2 -8 -16 -8h-82q-5 0 -7.5 2t-1.5 6l20 90q14 57 87 57q35 0 62 -12zM424 1434h178q12 0 12 -15v-1308q0 -49 -37 -80
q-35 -31 -81 -31h-336q-46 0 -77 33q-32 34 -32 73v1313q0 15 12 15h179q14 0 14 -15v-1216q0 -13 12 -13h129q13 0 13 13v1216q0 15 14 15z" />
    <glyph glyph-name="utilde" unicode="&#x169;" horiz-adv-x="666" 
d="M317 1639l76 -39q19 -8 21 6l7 35q2 8 16 8h82q5 0 7.5 -2t1.5 -6l-20 -90q-14 -57 -87 -57q-36 0 -63 12l-75 39q-19 7 -21 -6l-7 -35q-2 -8 -16 -8h-82q-5 0 -7.5 2t-1.5 6l20 90q14 57 87 57q35 0 62 -12zM424 1434h178q12 0 12 -15v-1308q0 -49 -37 -80
q-35 -31 -81 -31h-336q-46 0 -77 33q-32 34 -32 73v1313q0 15 12 15h179q14 0 14 -15v-1216q0 -13 12 -13h129q13 0 13 13v1216q0 15 14 15z" />
    <glyph glyph-name="Ohorn" unicode="&#x1a0;" horiz-adv-x="704" 
d="M512 0h-340q-52 0 -86 36q-35 37 -35 87v1188q0 50 35 87q34 36 86 36h340q33 0 60 -15l18 84q2 15 14 15h139q8 0 10.5 -5t-0.5 -10l-78 -157q-9 -10 -21 -10h-21q2 -16 2 -25v-1188q0 -51 -36 -87t-87 -36zM281 190h127q9 0 15.5 7t6.5 16v999q0 23 -22 23h-127
q-25 0 -25 -23v-999q0 -9 7 -16t18 -7z" />
    <glyph glyph-name="ohorn" unicode="&#x1a1;" horiz-adv-x="704" 
d="M512 0h-340q-52 0 -86 36q-35 37 -35 87v1188q0 50 35 87q34 36 86 36h340q33 0 60 -15l18 84q2 15 14 15h139q8 0 10.5 -5t-0.5 -10l-78 -157q-9 -10 -21 -10h-21q2 -16 2 -25v-1188q0 -51 -36 -87t-87 -36zM281 190h127q9 0 15.5 7t6.5 16v999q0 23 -22 23h-127
q-25 0 -25 -23v-999q0 -9 7 -16t18 -7z" />
    <glyph glyph-name="Uhorn" unicode="&#x1af;" horiz-adv-x="704" 
d="M753 1503l-78 -157q-9 -10 -21 -10h-40v-1225q0 -49 -37 -80q-35 -31 -81 -31h-336q-46 0 -77 33q-32 34 -32 73v1313q0 15 12 15h179q14 0 14 -15v-1216q0 -13 12 -13h129q13 0 13 13v1216q0 15 14 15h151l15 69q2 15 14 15h139q8 0 10.5 -5t-0.5 -10z" />
    <glyph glyph-name="uhorn" unicode="&#x1b0;" horiz-adv-x="704" 
d="M753 1503l-78 -157q-9 -10 -21 -10h-40v-1225q0 -49 -37 -80q-35 -31 -81 -31h-336q-46 0 -77 33q-32 34 -32 73v1313q0 15 12 15h179q14 0 14 -15v-1216q0 -13 12 -13h129q13 0 13 13v1216q0 15 14 15h151l15 69q2 15 14 15h139q8 0 10.5 -5t-0.5 -10z" />
    <glyph glyph-name="circumflex" unicode="&#x2c6;" horiz-adv-x="1024" 
 />
    <glyph glyph-name="caron" unicode="&#x2c7;" horiz-adv-x="1024" 
 />
    <glyph glyph-name="uni02C9" unicode="&#x2c9;" horiz-adv-x="1024" 
 />
    <glyph glyph-name="breve" unicode="&#x2d8;" horiz-adv-x="1024" 
 />
    <glyph glyph-name="dotaccent" unicode="&#x2d9;" horiz-adv-x="1024" 
 />
    <glyph glyph-name="ring" unicode="&#x2da;" horiz-adv-x="1024" 
 />
    <glyph glyph-name="ogonek" unicode="&#x2db;" horiz-adv-x="1024" 
 />
    <glyph glyph-name="tilde" unicode="&#x2dc;" horiz-adv-x="1024" 
 />
    <glyph glyph-name="hungarumlaut" unicode="&#x2dd;" horiz-adv-x="1024" 
 />
    <glyph glyph-name="uni1EA0" unicode="&#x1ea0;" 
d="M433 -89v-117q0 -13 -13 -13h-166q-13 0 -13 13v117q0 13 13 13h166q13 0 13 -13zM276 471h127q11 0 11 10l-68 621q-1 5 -3.5 7t-5 0t-3.5 -7l-68 -621q0 -10 10 -10zM244 268l-29 -254q0 -14 -14 -14h-168q-13 0 -13 14l170 1405q0 15 13 15h280q13 0 13 -15l170 -1405
q0 -14 -13 -14h-174q-14 0 -14 14l-29 254q0 8 -12 8h-168q-12 0 -12 -8z" />
    <glyph glyph-name="uni1EA1" unicode="&#x1ea1;" 
d="M433 -89v-117q0 -13 -13 -13h-166q-13 0 -13 13v117q0 13 13 13h166q13 0 13 -13zM276 471h127q11 0 11 10l-68 621q-1 5 -3.5 7t-5 0t-3.5 -7l-68 -621q0 -10 10 -10zM244 268l-29 -254q0 -14 -14 -14h-168q-13 0 -13 14l170 1405q0 15 13 15h280q13 0 13 -15l170 -1405
q0 -14 -13 -14h-174q-14 0 -14 14l-29 254q0 8 -12 8h-168q-12 0 -12 -8z" />
    <glyph glyph-name="uni1EA2" unicode="&#x1ea2;" 
d="M397 1482h-97q-4 0 -6 10q0 9 -0.5 13.5t-0.5 12.5q0 24 15 37q6 6 24 17.5t21 13.5q4 5 4 13v19h-66q-50 72 -51 78q0 5 11 5h180q31 0 36.5 -5t5.5 -35v-73q0 -14 -6.5 -25t-11 -15.5t-22 -14.5t-22.5 -13l-4 -2q-4 -3 -4 -10v-16q0 -10 -6 -10zM276 471h127
q11 0 11 10l-68 621q-1 5 -3.5 7t-5 0t-3.5 -7l-68 -621q0 -10 10 -10zM244 268l-29 -254q0 -14 -14 -14h-168q-13 0 -13 14l170 1405q0 15 13 15h280q13 0 13 -15l170 -1405q0 -14 -13 -14h-174q-14 0 -14 14l-29 254q0 8 -12 8h-168q-12 0 -12 -8z" />
    <glyph glyph-name="uni1EA3" unicode="&#x1ea3;" 
d="M397 1482h-97q-4 0 -6 10q0 9 -0.5 13.5t-0.5 12.5q0 24 15 37q6 6 24 17.5t21 13.5q4 5 4 13v19h-66q-50 72 -51 78q0 5 11 5h180q31 0 36.5 -5t5.5 -35v-73q0 -14 -6.5 -25t-11 -15.5t-22 -14.5t-22.5 -13l-4 -2q-4 -3 -4 -10v-16q0 -10 -6 -10zM276 471h127
q11 0 11 10l-68 621q-1 5 -3.5 7t-5 0t-3.5 -7l-68 -621q0 -10 10 -10zM244 268l-29 -254q0 -14 -14 -14h-168q-13 0 -13 14l170 1405q0 15 13 15h280q13 0 13 -15l170 -1405q0 -14 -13 -14h-174q-14 0 -14 14l-29 254q0 8 -12 8h-168q-12 0 -12 -8z" />
    <glyph glyph-name="uni1EA4" unicode="&#x1ea4;" 
d="M781 1731l-137 -131q-11 -8 -21 -8h-115q-10 0 -6 10l58 129q4 12 14 12h203q6 0 7 -4t-3 -8zM276 471h127q11 0 11 10l-68 621q-1 5 -3.5 7t-5 0t-3.5 -7l-68 -621q0 -10 10 -10zM244 268l-29 -254q0 -14 -14 -14h-168q-13 0 -13 14l170 1405q0 15 13 15h280
q13 0 13 -15l170 -1405q0 -14 -13 -14h-174q-14 0 -14 14l-29 254q0 8 -12 8h-168q-12 0 -12 -8zM256 1482h-102q-13 0 -7 10l95 129q8 12 16 12h180q8 0 17 -12l94 -129q6 -10 -6 -10h-107q-9 0 -22 8l-58 51q-10 7 -20 0l-57 -51q-14 -8 -23 -8z" />
    <glyph glyph-name="uni1EA5" unicode="&#x1ea5;" 
d="M781 1731l-137 -131q-11 -8 -21 -8h-115q-10 0 -6 10l58 129q4 12 14 12h203q6 0 7 -4t-3 -8zM276 471h127q11 0 11 10l-68 621q-1 5 -3.5 7t-5 0t-3.5 -7l-68 -621q0 -10 10 -10zM244 268l-29 -254q0 -14 -14 -14h-168q-13 0 -13 14l170 1405q0 15 13 15h280
q13 0 13 -15l170 -1405q0 -14 -13 -14h-174q-14 0 -14 14l-29 254q0 8 -12 8h-168q-12 0 -12 -8zM256 1482h-102q-13 0 -7 10l95 129q8 12 16 12h180q8 0 17 -12l94 -129q6 -10 -6 -10h-107q-9 0 -22 8l-58 51q-10 7 -20 0l-57 -51q-14 -8 -23 -8z" />
    <glyph glyph-name="uni1EA6" unicode="&#x1ea6;" 
d="M649 1592h-115q-9 0 -20 8l-138 131q-4 4 -3 8t7 4h203q11 0 15 -12l57 -129q4 -10 -6 -10zM276 471h127q11 0 11 10l-68 621q-1 5 -3.5 7t-5 0t-3.5 -7l-68 -621q0 -10 10 -10zM244 268l-29 -254q0 -14 -14 -14h-168q-13 0 -13 14l170 1405q0 15 13 15h280q13 0 13 -15
l170 -1405q0 -14 -13 -14h-174q-14 0 -14 14l-29 254q0 8 -12 8h-168q-12 0 -12 -8zM256 1482h-102q-13 0 -7 10l95 129q8 12 16 12h180q8 0 17 -12l94 -129q6 -10 -6 -10h-107q-9 0 -22 8l-58 51q-10 7 -20 0l-57 -51q-14 -8 -23 -8z" />
    <glyph glyph-name="uni1EA7" unicode="&#x1ea7;" 
d="M649 1592h-115q-9 0 -20 8l-138 131q-4 4 -3 8t7 4h203q11 0 15 -12l57 -129q4 -10 -6 -10zM276 471h127q11 0 11 10l-68 621q-1 5 -3.5 7t-5 0t-3.5 -7l-68 -621q0 -10 10 -10zM244 268l-29 -254q0 -14 -14 -14h-168q-13 0 -13 14l170 1405q0 15 13 15h280q13 0 13 -15
l170 -1405q0 -14 -13 -14h-174q-14 0 -14 14l-29 254q0 8 -12 8h-168q-12 0 -12 -8zM256 1482h-102q-13 0 -7 10l95 129q8 12 16 12h180q8 0 17 -12l94 -129q6 -10 -6 -10h-107q-9 0 -22 8l-58 51q-10 7 -20 0l-57 -51q-14 -8 -23 -8z" />
    <glyph glyph-name="uni1EA8" unicode="&#x1ea8;" 
d="M604 1584h-97q-4 0 -6 10q0 9 -0.5 13.5t-0.5 12.5q0 24 15 37q6 6 24 17.5t21 13.5q4 5 4 13v19h-66q-50 72 -51 78q0 5 11 5h180q31 0 36.5 -5t5.5 -35v-73q0 -14 -6.5 -25t-11 -15.5t-22 -14.5t-22.5 -13l-4 -2q-4 -3 -4 -10v-16q0 -10 -6 -10zM276 471h127
q11 0 11 10l-68 621q-1 5 -3.5 7t-5 0t-3.5 -7l-68 -621q0 -10 10 -10zM244 268l-29 -254q0 -14 -14 -14h-168q-13 0 -13 14l170 1405q0 15 13 15h280q13 0 13 -15l170 -1405q0 -14 -13 -14h-174q-14 0 -14 14l-29 254q0 8 -12 8h-168q-12 0 -12 -8zM256 1482h-102
q-13 0 -7 10l95 129q8 12 16 12h180q8 0 17 -12l94 -129q6 -10 -6 -10h-107q-9 0 -22 8l-58 51q-10 7 -20 0l-57 -51q-14 -8 -23 -8z" />
    <glyph glyph-name="uni1EA9" unicode="&#x1ea9;" 
d="M604 1584h-97q-4 0 -6 10q0 9 -0.5 13.5t-0.5 12.5q0 24 15 37q6 6 24 17.5t21 13.5q4 5 4 13v19h-66q-50 72 -51 78q0 5 11 5h180q31 0 36.5 -5t5.5 -35v-73q0 -14 -6.5 -25t-11 -15.5t-22 -14.5t-22.5 -13l-4 -2q-4 -3 -4 -10v-16q0 -10 -6 -10zM276 471h127
q11 0 11 10l-68 621q-1 5 -3.5 7t-5 0t-3.5 -7l-68 -621q0 -10 10 -10zM244 268l-29 -254q0 -14 -14 -14h-168q-13 0 -13 14l170 1405q0 15 13 15h280q13 0 13 -15l170 -1405q0 -14 -13 -14h-174q-14 0 -14 14l-29 254q0 8 -12 8h-168q-12 0 -12 -8zM256 1482h-102
q-13 0 -7 10l95 129q8 12 16 12h180q8 0 17 -12l94 -129q6 -10 -6 -10h-107q-9 0 -22 8l-58 51q-10 7 -20 0l-57 -51q-14 -8 -23 -8z" />
    <glyph glyph-name="uni1EAA" unicode="&#x1eaa;" 
d="M330 1801l76 -39q20 -8 21 6l7 35q2 8 16 8h82q5 0 7.5 -2t1.5 -6l-20 -90q-14 -57 -87 -57q-36 0 -63 12l-75 39q-20 7 -21 -6l-7 -35q-2 -8 -16 -8h-82q-5 0 -7.5 2t-1.5 6l20 90q14 57 87 57q35 0 62 -12zM276 471h127q11 0 11 10l-68 621q-1 5 -3.5 7t-5 0t-3.5 -7
l-68 -621q0 -10 10 -10zM244 268l-29 -254q0 -14 -14 -14h-168q-13 0 -13 14l170 1405q0 15 13 15h280q13 0 13 -15l170 -1405q0 -14 -13 -14h-174q-14 0 -14 14l-29 254q0 8 -12 8h-168q-12 0 -12 -8zM256 1482h-102q-13 0 -7 10l95 129q8 12 16 12h180q8 0 17 -12l94 -129
q6 -10 -6 -10h-107q-9 0 -22 8l-58 51q-10 7 -20 0l-57 -51q-14 -8 -23 -8z" />
    <glyph glyph-name="uni1EAB" unicode="&#x1eab;" 
d="M330 1801l76 -39q20 -8 21 6l7 35q2 8 16 8h82q5 0 7.5 -2t1.5 -6l-20 -90q-14 -57 -87 -57q-36 0 -63 12l-75 39q-20 7 -21 -6l-7 -35q-2 -8 -16 -8h-82q-5 0 -7.5 2t-1.5 6l20 90q14 57 87 57q35 0 62 -12zM276 471h127q11 0 11 10l-68 621q-1 5 -3.5 7t-5 0t-3.5 -7
l-68 -621q0 -10 10 -10zM244 268l-29 -254q0 -14 -14 -14h-168q-13 0 -13 14l170 1405q0 15 13 15h280q13 0 13 -15l170 -1405q0 -14 -13 -14h-174q-14 0 -14 14l-29 254q0 8 -12 8h-168q-12 0 -12 -8zM256 1482h-102q-13 0 -7 10l95 129q8 12 16 12h180q8 0 17 -12l94 -129
q6 -10 -6 -10h-107q-9 0 -22 8l-58 51q-10 7 -20 0l-57 -51q-14 -8 -23 -8z" />
    <glyph glyph-name="uni1EAC" unicode="&#x1eac;" 
d="M433 -89v-117q0 -13 -13 -13h-166q-13 0 -13 13v117q0 13 13 13h166q13 0 13 -13zM276 471h127q11 0 11 10l-68 621q-1 5 -3.5 7t-5 0t-3.5 -7l-68 -621q0 -10 10 -10zM244 268l-29 -254q0 -14 -14 -14h-168q-13 0 -13 14l170 1405q0 15 13 15h280q13 0 13 -15l170 -1405
q0 -14 -13 -14h-174q-14 0 -14 14l-29 254q0 8 -12 8h-168q-12 0 -12 -8zM256 1482h-102q-13 0 -7 10l95 129q8 12 16 12h180q8 0 17 -12l94 -129q6 -10 -6 -10h-107q-9 0 -22 8l-58 51q-10 7 -20 0l-57 -51q-14 -8 -23 -8z" />
    <glyph glyph-name="uni1EAD" unicode="&#x1ead;" 
d="M433 -89v-117q0 -13 -13 -13h-166q-13 0 -13 13v117q0 13 13 13h166q13 0 13 -13zM276 471h127q11 0 11 10l-68 621q-1 5 -3.5 7t-5 0t-3.5 -7l-68 -621q0 -10 10 -10zM244 268l-29 -254q0 -14 -14 -14h-168q-13 0 -13 14l170 1405q0 15 13 15h280q13 0 13 -15l170 -1405
q0 -14 -13 -14h-174q-14 0 -14 14l-29 254q0 8 -12 8h-168q-12 0 -12 -8zM256 1482h-102q-13 0 -7 10l95 129q8 12 16 12h180q8 0 17 -12l94 -129q6 -10 -6 -10h-107q-9 0 -22 8l-58 51q-10 7 -20 0l-57 -51q-14 -8 -23 -8z" />
    <glyph glyph-name="uni1EAE" unicode="&#x1eae;" 
d="M451 1482h-224q-25 0 -43 18.5t-18 43.5v90h119v-42q0 -4 3.5 -8t8.5 -4h86q11 0 11 12v42h119v-90q0 -25 -18.5 -43.5t-43.5 -18.5zM276 471h127q11 0 11 10l-68 621q-1 5 -3.5 7t-5 0t-3.5 -7l-68 -621q0 -10 10 -10zM244 268l-29 -254q0 -14 -14 -14h-168
q-13 0 -13 14l170 1405q0 15 13 15h280q13 0 13 -15l170 -1405q0 -14 -13 -14h-174q-14 0 -14 14l-29 254q0 8 -12 8h-168q-12 0 -12 -8zM541 1794l-137 -131q-11 -8 -21 -8h-115q-10 0 -6 10l58 129q4 12 14 12h203q6 0 7 -4t-3 -8z" />
    <glyph glyph-name="uni1EAF" unicode="&#x1eaf;" 
d="M451 1482h-224q-25 0 -43 18.5t-18 43.5v90h119v-42q0 -4 3.5 -8t8.5 -4h86q11 0 11 12v42h119v-90q0 -25 -18.5 -43.5t-43.5 -18.5zM276 471h127q11 0 11 10l-68 621q-1 5 -3.5 7t-5 0t-3.5 -7l-68 -621q0 -10 10 -10zM244 268l-29 -254q0 -14 -14 -14h-168
q-13 0 -13 14l170 1405q0 15 13 15h280q13 0 13 -15l170 -1405q0 -14 -13 -14h-174q-14 0 -14 14l-29 254q0 8 -12 8h-168q-12 0 -12 -8zM541 1794l-137 -131q-11 -8 -21 -8h-115q-10 0 -6 10l58 129q4 12 14 12h203q6 0 7 -4t-3 -8z" />
    <glyph glyph-name="uni1EB0" unicode="&#x1eb0;" 
d="M451 1482h-224q-25 0 -43 18.5t-18 43.5v90h119v-42q0 -4 3.5 -8t8.5 -4h86q11 0 11 12v42h119v-90q0 -25 -18.5 -43.5t-43.5 -18.5zM276 471h127q11 0 11 10l-68 621q-1 5 -3.5 7t-5 0t-3.5 -7l-68 -621q0 -10 10 -10zM244 268l-29 -254q0 -14 -14 -14h-168
q-13 0 -13 14l170 1405q0 15 13 15h280q13 0 13 -15l170 -1405q0 -14 -13 -14h-174q-14 0 -14 14l-29 254q0 8 -12 8h-168q-12 0 -12 -8zM416 1655h-115q-9 0 -20 8l-138 131q-4 4 -3 8t7 4h203q10 0 15 -12l57 -129q4 -10 -6 -10z" />
    <glyph glyph-name="uni1EB1" unicode="&#x1eb1;" 
d="M451 1482h-224q-25 0 -43 18.5t-18 43.5v90h119v-42q0 -4 3.5 -8t8.5 -4h86q11 0 11 12v42h119v-90q0 -25 -18.5 -43.5t-43.5 -18.5zM276 471h127q11 0 11 10l-68 621q-1 5 -3.5 7t-5 0t-3.5 -7l-68 -621q0 -10 10 -10zM244 268l-29 -254q0 -14 -14 -14h-168
q-13 0 -13 14l170 1405q0 15 13 15h280q13 0 13 -15l170 -1405q0 -14 -13 -14h-174q-14 0 -14 14l-29 254q0 8 -12 8h-168q-12 0 -12 -8zM416 1655h-115q-9 0 -20 8l-138 131q-4 4 -3 8t7 4h203q10 0 15 -12l57 -129q4 -10 -6 -10z" />
    <glyph glyph-name="uni1EB2" unicode="&#x1eb2;" 
d="M451 1482h-224q-25 0 -43 18.5t-18 43.5v90h119v-42q0 -4 3.5 -8t8.5 -4h86q11 0 11 12v42h119v-90q0 -25 -18.5 -43.5t-43.5 -18.5zM276 471h127q11 0 11 10l-68 621q-1 5 -3.5 7t-5 0t-3.5 -7l-68 -621q0 -10 10 -10zM244 268l-29 -254q0 -14 -14 -14h-168
q-13 0 -13 14l170 1405q0 15 13 15h280q13 0 13 -15l170 -1405q0 -14 -13 -14h-174q-14 0 -14 14l-29 254q0 8 -12 8h-168q-12 0 -12 -8zM388 1655h-97q-4 0 -6 10q0 9 -0.5 13.5t-0.5 12.5q0 25 15 37q6 6 24 17.5t21 13.5q4 5 4 13v19h-66q-50 72 -51 78q0 5 11 5h180
q31 0 36.5 -5t5.5 -35v-73q0 -14 -6.5 -25t-11 -15.5t-22 -14.5t-22.5 -13l-4 -2q-4 -3 -4 -10v-16q0 -10 -6 -10z" />
    <glyph glyph-name="uni1EB3" unicode="&#x1eb3;" 
d="M451 1482h-224q-25 0 -43 18.5t-18 43.5v90h119v-42q0 -4 3.5 -8t8.5 -4h86q11 0 11 12v42h119v-90q0 -25 -18.5 -43.5t-43.5 -18.5zM276 471h127q11 0 11 10l-68 621q-1 5 -3.5 7t-5 0t-3.5 -7l-68 -621q0 -10 10 -10zM244 268l-29 -254q0 -14 -14 -14h-168
q-13 0 -13 14l170 1405q0 15 13 15h280q13 0 13 -15l170 -1405q0 -14 -13 -14h-174q-14 0 -14 14l-29 254q0 8 -12 8h-168q-12 0 -12 -8zM388 1655h-97q-4 0 -6 10q0 9 -0.5 13.5t-0.5 12.5q0 25 15 37q6 6 24 17.5t21 13.5q4 5 4 13v19h-66q-50 72 -51 78q0 5 11 5h180
q31 0 36.5 -5t5.5 -35v-73q0 -14 -6.5 -25t-11 -15.5t-22 -14.5t-22.5 -13l-4 -2q-4 -3 -4 -10v-16q0 -10 -6 -10z" />
    <glyph glyph-name="uni1EB4" unicode="&#x1eb4;" 
d="M451 1482h-224q-25 0 -43 18.5t-18 43.5v90h119v-42q0 -4 3.5 -8t8.5 -4h86q11 0 11 12v42h119v-90q0 -25 -18.5 -43.5t-43.5 -18.5zM276 471h127q11 0 11 10l-68 621q-1 5 -3.5 7t-5 0t-3.5 -7l-68 -621q0 -10 10 -10zM244 268l-29 -254q0 -14 -14 -14h-168
q-13 0 -13 14l170 1405q0 15 13 15h280q13 0 13 -15l170 -1405q0 -14 -13 -14h-174q-14 0 -14 14l-29 254q0 8 -12 8h-168q-12 0 -12 -8zM329 1800l76 -39q19 -7 21 6l7 35q2 8 16 8h82q5 0 7.5 -2t1.5 -6l-20 -90q-14 -57 -87 -57q-36 0 -63 12l-75 39q-19 8 -21 -6l-7 -35
q-2 -8 -16 -8h-82q-5 0 -7.5 2t-1.5 6l20 90q14 57 87 57q35 0 62 -12z" />
    <glyph glyph-name="uni1EB5" unicode="&#x1eb5;" 
d="M451 1482h-224q-25 0 -43 18.5t-18 43.5v90h119v-42q0 -4 3.5 -8t8.5 -4h86q11 0 11 12v42h119v-90q0 -25 -18.5 -43.5t-43.5 -18.5zM276 471h127q11 0 11 10l-68 621q-1 5 -3.5 7t-5 0t-3.5 -7l-68 -621q0 -10 10 -10zM244 268l-29 -254q0 -14 -14 -14h-168
q-13 0 -13 14l170 1405q0 15 13 15h280q13 0 13 -15l170 -1405q0 -14 -13 -14h-174q-14 0 -14 14l-29 254q0 8 -12 8h-168q-12 0 -12 -8zM329 1800l76 -39q19 -7 21 6l7 35q2 8 16 8h82q5 0 7.5 -2t1.5 -6l-20 -90q-14 -57 -87 -57q-36 0 -63 12l-75 39q-19 8 -21 -6l-7 -35
q-2 -8 -16 -8h-82q-5 0 -7.5 2t-1.5 6l20 90q14 57 87 57q35 0 62 -12z" />
    <glyph glyph-name="uni1EB6" unicode="&#x1eb6;" 
d="M451 1482h-224q-25 0 -43 18.5t-18 43.5v90h119v-42q0 -4 3.5 -8t8.5 -4h86q11 0 11 12v42h119v-90q0 -25 -18.5 -43.5t-43.5 -18.5zM403 471h-127q-10 0 -10 10l68 621q1 5 3.5 7t5 0t3.5 -7l68 -621q0 -10 -11 -10zM215 14l29 254q0 8 12 8h168q12 0 12 -8l29 -254
q0 -14 14 -14h174q13 0 13 14l-170 1405q0 15 -13 15h-280q-13 0 -13 -15l-170 -1405q0 -14 13 -14h168q14 0 14 14zM433 -206v117q0 13 -13 13h-166q-13 0 -13 -13v-117q0 -13 13 -13h166q13 0 13 13z" />
    <glyph glyph-name="uni1EB7" unicode="&#x1eb7;" 
d="M451 1482h-224q-25 0 -43 18.5t-18 43.5v90h119v-42q0 -4 3.5 -8t8.5 -4h86q11 0 11 12v42h119v-90q0 -25 -18.5 -43.5t-43.5 -18.5zM403 471h-127q-10 0 -10 10l68 621q1 5 3.5 7t5 0t3.5 -7l68 -621q0 -10 -11 -10zM215 14l29 254q0 8 12 8h168q12 0 12 -8l29 -254
q0 -14 14 -14h174q13 0 13 14l-170 1405q0 15 -13 15h-280q-13 0 -13 -15l-170 -1405q0 -14 13 -14h168q14 0 14 14zM433 -206v117q0 13 -13 13h-166q-13 0 -13 -13v-117q0 -13 13 -13h166q13 0 13 13z" />
    <glyph glyph-name="uni1EB8" unicode="&#x1eb8;" horiz-adv-x="582" 
d="M390 -89v-117q0 -13 -13 -13h-166q-13 0 -13 13v117q0 13 13 13h166q13 0 13 -13zM63 1434h476q12 0 12 -15v-170q0 -14 -12 -14h-271q-12 0 -12 -12v-338q0 -15 12 -15h236q15 0 10 -14l-47 -168q-5 -12 -16 -12h-183q-12 0 -12 -12v-461q0 -13 12 -13h271q12 0 12 -14
v-162q0 -14 -12 -14h-476q-12 0 -12 14v1405q0 15 12 15z" />
    <glyph glyph-name="uni1EB9" unicode="&#x1eb9;" horiz-adv-x="582" 
d="M390 -89v-117q0 -13 -13 -13h-166q-13 0 -13 13v117q0 13 13 13h166q13 0 13 -13zM63 1434h476q12 0 12 -15v-170q0 -14 -12 -14h-271q-12 0 -12 -12v-338q0 -15 12 -15h236q15 0 10 -14l-47 -168q-5 -12 -16 -12h-183q-12 0 -12 -12v-461q0 -13 12 -13h271q12 0 12 -14
v-162q0 -14 -12 -14h-476q-12 0 -12 14v1405q0 15 12 15z" />
    <glyph glyph-name="uni1EBA" unicode="&#x1eba;" horiz-adv-x="582" 
d="M363 1482h-97q-4 0 -6 10q0 9 -0.5 13.5t-0.5 12.5q0 24 15 37q6 6 24 17.5t21 13.5q4 5 4 13v19h-66q-50 72 -51 78q0 5 11 5h180q31 0 36.5 -5t5.5 -35v-73q0 -14 -6.5 -25t-11 -15.5t-22 -14.5t-22.5 -13l-4 -2q-4 -3 -4 -10v-16q0 -10 -6 -10zM63 1434h476
q12 0 12 -15v-170q0 -14 -12 -14h-271q-12 0 -12 -12v-338q0 -15 12 -15h236q15 0 10 -14l-47 -168q-5 -12 -16 -12h-183q-12 0 -12 -12v-461q0 -13 12 -13h271q12 0 12 -14v-162q0 -14 -12 -14h-476q-12 0 -12 14v1405q0 15 12 15z" />
    <glyph glyph-name="uni1EBB" unicode="&#x1ebb;" horiz-adv-x="582" 
d="M363 1482h-97q-4 0 -6 10q0 9 -0.5 13.5t-0.5 12.5q0 24 15 37q6 6 24 17.5t21 13.5q4 5 4 13v19h-66q-50 72 -51 78q0 5 11 5h180q31 0 36.5 -5t5.5 -35v-73q0 -14 -6.5 -25t-11 -15.5t-22 -14.5t-22.5 -13l-4 -2q-4 -3 -4 -10v-16q0 -10 -6 -10zM63 1434h476
q12 0 12 -15v-170q0 -14 -12 -14h-271q-12 0 -12 -12v-338q0 -15 12 -15h236q15 0 10 -14l-47 -168q-5 -12 -16 -12h-183q-12 0 -12 -12v-461q0 -13 12 -13h271q12 0 12 -14v-162q0 -14 -12 -14h-476q-12 0 -12 14v1405q0 15 12 15z" />
    <glyph glyph-name="uni1EBC" unicode="&#x1ebc;" horiz-adv-x="582" 
d="M295 1639l76 -39q19 -8 21 6l7 35q2 8 16 8h82q5 0 7.5 -2t1.5 -6l-20 -90q-14 -57 -87 -57q-36 0 -63 12l-75 39q-19 7 -21 -6l-7 -35q-2 -8 -16 -8h-82q-5 0 -7.5 2t-1.5 6l20 90q14 57 87 57q35 0 62 -12zM63 1434h476q12 0 12 -15v-170q0 -14 -12 -14h-271
q-12 0 -12 -12v-338q0 -15 12 -15h236q15 0 10 -14l-47 -168q-5 -12 -16 -12h-183q-12 0 -12 -12v-461q0 -13 12 -13h271q12 0 12 -14v-162q0 -14 -12 -14h-476q-12 0 -12 14v1405q0 15 12 15z" />
    <glyph glyph-name="uni1EBD" unicode="&#x1ebd;" horiz-adv-x="582" 
d="M295 1639l76 -39q19 -8 21 6l7 35q2 8 16 8h82q5 0 7.5 -2t1.5 -6l-20 -90q-14 -57 -87 -57q-36 0 -63 12l-75 39q-19 7 -21 -6l-7 -35q-2 -8 -16 -8h-82q-5 0 -7.5 2t-1.5 6l20 90q14 57 87 57q35 0 62 -12zM63 1434h476q12 0 12 -15v-170q0 -14 -12 -14h-271
q-12 0 -12 -12v-338q0 -15 12 -15h236q15 0 10 -14l-47 -168q-5 -12 -16 -12h-183q-12 0 -12 -12v-461q0 -13 12 -13h271q12 0 12 -14v-162q0 -14 -12 -14h-476q-12 0 -12 14v1405q0 15 12 15z" />
    <glyph glyph-name="uni1EBE" unicode="&#x1ebe;" horiz-adv-x="582" 
d="M740 1731l-137 -131q-11 -8 -21 -8h-115q-10 0 -6 10l58 129q5 12 14 12h203q6 0 7 -4t-3 -8zM63 1434h476q12 0 12 -15v-170q0 -14 -12 -14h-271q-12 0 -12 -12v-338q0 -15 12 -15h236q15 0 10 -14l-47 -168q-5 -12 -16 -12h-183q-12 0 -12 -12v-461q0 -13 12 -13h271
q12 0 12 -14v-162q0 -14 -12 -14h-476q-12 0 -12 14v1405q0 15 12 15zM215 1482h-102q-13 0 -7 10l95 129q7 12 16 12h180q8 0 17 -12l94 -129q6 -10 -6 -10h-107q-9 0 -22 8l-58 51q-10 7 -20 0l-57 -51q-14 -8 -23 -8z" />
    <glyph glyph-name="uni1EBF" unicode="&#x1ebf;" horiz-adv-x="582" 
d="M740 1731l-137 -131q-11 -8 -21 -8h-115q-10 0 -6 10l58 129q5 12 14 12h203q6 0 7 -4t-3 -8zM63 1434h476q12 0 12 -15v-170q0 -14 -12 -14h-271q-12 0 -12 -12v-338q0 -15 12 -15h236q15 0 10 -14l-47 -168q-5 -12 -16 -12h-183q-12 0 -12 -12v-461q0 -13 12 -13h271
q12 0 12 -14v-162q0 -14 -12 -14h-476q-12 0 -12 14v1405q0 15 12 15zM215 1482h-102q-13 0 -7 10l95 129q7 12 16 12h180q8 0 17 -12l94 -129q6 -10 -6 -10h-107q-9 0 -22 8l-58 51q-10 7 -20 0l-57 -51q-14 -8 -23 -8z" />
    <glyph glyph-name="uni1EC0" unicode="&#x1ec0;" horiz-adv-x="582" 
d="M608 1592h-115q-9 0 -20 8l-138 131q-4 4 -3 8t7 4h203q10 0 15 -12l57 -129q4 -10 -6 -10zM63 1434h476q12 0 12 -15v-170q0 -14 -12 -14h-271q-12 0 -12 -12v-338q0 -15 12 -15h236q15 0 10 -14l-47 -168q-5 -12 -16 -12h-183q-12 0 -12 -12v-461q0 -13 12 -13h271
q12 0 12 -14v-162q0 -14 -12 -14h-476q-12 0 -12 14v1405q0 15 12 15zM215 1482h-102q-13 0 -7 10l95 129q7 12 16 12h180q8 0 17 -12l94 -129q6 -10 -6 -10h-107q-9 0 -22 8l-58 51q-10 7 -20 0l-57 -51q-14 -8 -23 -8z" />
    <glyph glyph-name="uni1EC1" unicode="&#x1ec1;" horiz-adv-x="582" 
d="M608 1592h-115q-9 0 -20 8l-138 131q-4 4 -3 8t7 4h203q10 0 15 -12l57 -129q4 -10 -6 -10zM63 1434h476q12 0 12 -15v-170q0 -14 -12 -14h-271q-12 0 -12 -12v-338q0 -15 12 -15h236q15 0 10 -14l-47 -168q-5 -12 -16 -12h-183q-12 0 -12 -12v-461q0 -13 12 -13h271
q12 0 12 -14v-162q0 -14 -12 -14h-476q-12 0 -12 14v1405q0 15 12 15zM215 1482h-102q-13 0 -7 10l95 129q7 12 16 12h180q8 0 17 -12l94 -129q6 -10 -6 -10h-107q-9 0 -22 8l-58 51q-10 7 -20 0l-57 -51q-14 -8 -23 -8z" />
    <glyph glyph-name="uni1EC2" unicode="&#x1ec2;" horiz-adv-x="582" 
d="M563 1584h-97q-4 0 -6 10q0 9 -0.5 13.5t-0.5 12.5q0 24 15 37q6 6 24 17.5t21 13.5q4 5 4 13v19h-66q-50 72 -51 78q0 5 11 5h180q31 0 36.5 -5t5.5 -35v-73q0 -14 -6.5 -25t-11 -15.5t-22 -14.5t-22.5 -13l-4 -2q-4 -3 -4 -10v-16q0 -10 -6 -10zM63 1434h476
q12 0 12 -15v-170q0 -14 -12 -14h-271q-12 0 -12 -12v-338q0 -15 12 -15h236q15 0 10 -14l-47 -168q-5 -12 -16 -12h-183q-12 0 -12 -12v-461q0 -13 12 -13h271q12 0 12 -14v-162q0 -14 -12 -14h-476q-12 0 -12 14v1405q0 15 12 15zM215 1482h-102q-13 0 -7 10l95 129
q7 12 16 12h180q8 0 17 -12l94 -129q6 -10 -6 -10h-107q-9 0 -22 8l-58 51q-10 7 -20 0l-57 -51q-14 -8 -23 -8z" />
    <glyph glyph-name="uni1EC3" unicode="&#x1ec3;" horiz-adv-x="582" 
d="M563 1584h-97q-4 0 -6 10q0 9 -0.5 13.5t-0.5 12.5q0 24 15 37q6 6 24 17.5t21 13.5q4 5 4 13v19h-66q-50 72 -51 78q0 5 11 5h180q31 0 36.5 -5t5.5 -35v-73q0 -14 -6.5 -25t-11 -15.5t-22 -14.5t-22.5 -13l-4 -2q-4 -3 -4 -10v-16q0 -10 -6 -10zM63 1434h476
q12 0 12 -15v-170q0 -14 -12 -14h-271q-12 0 -12 -12v-338q0 -15 12 -15h236q15 0 10 -14l-47 -168q-5 -12 -16 -12h-183q-12 0 -12 -12v-461q0 -13 12 -13h271q12 0 12 -14v-162q0 -14 -12 -14h-476q-12 0 -12 14v1405q0 15 12 15zM215 1482h-102q-13 0 -7 10l95 129
q7 12 16 12h180q8 0 17 -12l94 -129q6 -10 -6 -10h-107q-9 0 -22 8l-58 51q-10 7 -20 0l-57 -51q-14 -8 -23 -8z" />
    <glyph glyph-name="uni1EC4" unicode="&#x1ec4;" horiz-adv-x="582" 
d="M289 1801l76 -39q19 -8 21 6l7 35q2 8 16 8h82q5 0 7.5 -2t1.5 -6l-20 -90q-14 -57 -87 -57q-36 0 -63 12l-75 39q-19 7 -21 -6l-7 -35q-2 -8 -16 -8h-82q-5 0 -7.5 2t-1.5 6l20 90q14 57 87 57q35 0 62 -12zM63 1434h476q12 0 12 -15v-170q0 -14 -12 -14h-271
q-12 0 -12 -12v-338q0 -15 12 -15h236q15 0 10 -14l-47 -168q-5 -12 -16 -12h-183q-12 0 -12 -12v-461q0 -13 12 -13h271q12 0 12 -14v-162q0 -14 -12 -14h-476q-12 0 -12 14v1405q0 15 12 15zM215 1482h-102q-13 0 -7 10l95 129q7 12 16 12h180q8 0 17 -12l94 -129
q6 -10 -6 -10h-107q-9 0 -22 8l-58 51q-10 7 -20 0l-57 -51q-14 -8 -23 -8z" />
    <glyph glyph-name="uni1EC5" unicode="&#x1ec5;" horiz-adv-x="582" 
d="M289 1801l76 -39q19 -8 21 6l7 35q2 8 16 8h82q5 0 7.5 -2t1.5 -6l-20 -90q-14 -57 -87 -57q-36 0 -63 12l-75 39q-19 7 -21 -6l-7 -35q-2 -8 -16 -8h-82q-5 0 -7.5 2t-1.5 6l20 90q14 57 87 57q35 0 62 -12zM63 1434h476q12 0 12 -15v-170q0 -14 -12 -14h-271
q-12 0 -12 -12v-338q0 -15 12 -15h236q15 0 10 -14l-47 -168q-5 -12 -16 -12h-183q-12 0 -12 -12v-461q0 -13 12 -13h271q12 0 12 -14v-162q0 -14 -12 -14h-476q-12 0 -12 14v1405q0 15 12 15zM215 1482h-102q-13 0 -7 10l95 129q7 12 16 12h180q8 0 17 -12l94 -129
q6 -10 -6 -10h-107q-9 0 -22 8l-58 51q-10 7 -20 0l-57 -51q-14 -8 -23 -8z" />
    <glyph glyph-name="uni1EC6" unicode="&#x1ec6;" horiz-adv-x="582" 
d="M390 -89v-117q0 -13 -13 -13h-166q-13 0 -13 13v117q0 13 13 13h166q13 0 13 -13zM63 1434h476q12 0 12 -15v-170q0 -14 -12 -14h-271q-12 0 -12 -12v-338q0 -15 12 -15h236q15 0 10 -14l-47 -168q-5 -12 -16 -12h-183q-12 0 -12 -12v-461q0 -13 12 -13h271q12 0 12 -14
v-162q0 -14 -12 -14h-476q-12 0 -12 14v1405q0 15 12 15zM215 1482h-102q-13 0 -7 10l95 129q7 12 16 12h180q8 0 17 -12l94 -129q6 -10 -6 -10h-107q-9 0 -22 8l-58 51q-10 7 -20 0l-57 -51q-14 -8 -23 -8z" />
    <glyph glyph-name="uni1EC7" unicode="&#x1ec7;" horiz-adv-x="582" 
d="M390 -89v-117q0 -13 -13 -13h-166q-13 0 -13 13v117q0 13 13 13h166q13 0 13 -13zM63 1434h476q12 0 12 -15v-170q0 -14 -12 -14h-271q-12 0 -12 -12v-338q0 -15 12 -15h236q15 0 10 -14l-47 -168q-5 -12 -16 -12h-183q-12 0 -12 -12v-461q0 -13 12 -13h271q12 0 12 -14
v-162q0 -14 -12 -14h-476q-12 0 -12 14v1405q0 15 12 15zM215 1482h-102q-13 0 -7 10l95 129q7 12 16 12h180q8 0 17 -12l94 -129q6 -10 -6 -10h-107q-9 0 -22 8l-58 51q-10 7 -20 0l-57 -51q-14 -8 -23 -8z" />
    <glyph glyph-name="uni1EC8" unicode="&#x1ec8;" horiz-adv-x="307" 
d="M206 1482h-97q-4 0 -6 10q0 9 -0.5 13.5t-0.5 12.5q0 24 15 37q6 6 24 17.5t21 13.5q4 5 4 13v19h-66q-50 72 -51 78q0 5 11 5h180q31 0 36.5 -5t5.5 -35v-73q0 -14 -6.5 -25t-11 -15.5t-22 -14.5t-22.5 -13l-4 -2q-4 -3 -4 -10v-16q0 -10 -6 -10zM244 0h-178
q-15 0 -15 14v1405q0 15 15 15h178q12 0 12 -15v-1405q0 -14 -12 -14z" />
    <glyph glyph-name="uni1EC9" unicode="&#x1ec9;" horiz-adv-x="307" 
d="M206 1482h-97q-4 0 -6 10q0 9 -0.5 13.5t-0.5 12.5q0 24 15 37q6 6 24 17.5t21 13.5q4 5 4 13v19h-66q-50 72 -51 78q0 5 11 5h180q31 0 36.5 -5t5.5 -35v-73q0 -14 -6.5 -25t-11 -15.5t-22 -14.5t-22.5 -13l-4 -2q-4 -3 -4 -10v-16q0 -10 -6 -10zM244 0h-178
q-15 0 -15 14v1405q0 15 15 15h178q12 0 12 -15v-1405q0 -14 -12 -14z" />
    <glyph glyph-name="uni1ECA" unicode="&#x1eca;" horiz-adv-x="307" 
d="M249 -89v-117q0 -13 -13 -13h-166q-13 0 -13 13v117q0 13 13 13h166q13 0 13 -13zM244 0h-178q-15 0 -15 14v1405q0 15 15 15h178q12 0 12 -15v-1405q0 -14 -12 -14z" />
    <glyph glyph-name="uni1ECB" unicode="&#x1ecb;" horiz-adv-x="307" 
d="M249 -89v-117q0 -13 -13 -13h-166q-13 0 -13 13v117q0 13 13 13h166q13 0 13 -13zM244 0h-178q-15 0 -15 14v1405q0 15 15 15h178q12 0 12 -15v-1405q0 -14 -12 -14z" />
    <glyph glyph-name="uni1ECC" unicode="&#x1ecc;" 
d="M440 -89v-117q0 -13 -13 -13h-166q-13 0 -13 13v117q0 13 13 13h166q13 0 13 -13zM512 0h-340q-52 0 -86 36q-35 37 -35 87v1188q0 50 35 87q34 36 86 36h340q51 0 87 -36t36 -87v-1188q0 -51 -36 -87t-87 -36zM281 190h127q9 0 15.5 7t6.5 16v999q0 23 -22 23h-127
q-25 0 -25 -23v-999q0 -9 7 -16t18 -7z" />
    <glyph glyph-name="uni1ECD" unicode="&#x1ecd;" 
d="M440 -89v-117q0 -13 -13 -13h-166q-13 0 -13 13v117q0 13 13 13h166q13 0 13 -13zM512 0h-340q-52 0 -86 36q-35 37 -35 87v1188q0 50 35 87q34 36 86 36h340q51 0 87 -36t36 -87v-1188q0 -51 -36 -87t-87 -36zM281 190h127q9 0 15.5 7t6.5 16v999q0 23 -22 23h-127
q-25 0 -25 -23v-999q0 -9 7 -16t18 -7z" />
    <glyph glyph-name="uni1ECE" unicode="&#x1ece;" 
d="M395 1482h-97q-4 0 -6 10q0 9 -0.5 13.5t-0.5 12.5q0 24 15 37q6 6 24 17.5t21 13.5q4 5 4 13v19h-66q-50 72 -51 78q0 5 11 5h180q31 0 36.5 -5t5.5 -35v-73q0 -14 -6.5 -25t-11 -15.5t-22 -14.5t-22.5 -13l-4 -2q-4 -3 -4 -10v-16q0 -10 -6 -10zM512 0h-340
q-52 0 -86 36q-35 37 -35 87v1188q0 50 35 87q34 36 86 36h340q51 0 87 -36t36 -87v-1188q0 -51 -36 -87t-87 -36zM281 190h127q9 0 15.5 7t6.5 16v999q0 23 -22 23h-127q-25 0 -25 -23v-999q0 -9 7 -16t18 -7z" />
    <glyph glyph-name="uni1ECF" unicode="&#x1ecf;" 
d="M395 1482h-97q-4 0 -6 10q0 9 -0.5 13.5t-0.5 12.5q0 24 15 37q6 6 24 17.5t21 13.5q4 5 4 13v19h-66q-50 72 -51 78q0 5 11 5h180q31 0 36.5 -5t5.5 -35v-73q0 -14 -6.5 -25t-11 -15.5t-22 -14.5t-22.5 -13l-4 -2q-4 -3 -4 -10v-16q0 -10 -6 -10zM512 0h-340
q-52 0 -86 36q-35 37 -35 87v1188q0 50 35 87q34 36 86 36h340q51 0 87 -36t36 -87v-1188q0 -51 -36 -87t-87 -36zM281 190h127q9 0 15.5 7t6.5 16v999q0 23 -22 23h-127q-25 0 -25 -23v-999q0 -9 7 -16t18 -7z" />
    <glyph glyph-name="uni1ED0" unicode="&#x1ed0;" 
d="M781 1731l-137 -131q-11 -8 -21 -8h-115q-10 0 -6 10l58 129q4 12 14 12h203q6 0 7 -4t-3 -8zM512 0h-340q-52 0 -86 36q-35 37 -35 87v1188q0 50 35 87q34 36 86 36h340q51 0 87 -36t36 -87v-1188q0 -51 -36 -87t-87 -36zM281 190h127q9 0 15.5 7t6.5 16v999
q0 23 -22 23h-127q-25 0 -25 -23v-999q0 -9 7 -16t18 -7zM256 1482h-102q-13 0 -7 10l95 129q8 12 16 12h180q8 0 17 -12l94 -129q6 -10 -6 -10h-107q-9 0 -22 8l-58 51q-10 7 -20 0l-57 -51q-14 -8 -23 -8z" />
    <glyph glyph-name="uni1ED1" unicode="&#x1ed1;" 
d="M781 1731l-137 -131q-11 -8 -21 -8h-115q-10 0 -6 10l58 129q4 12 14 12h203q6 0 7 -4t-3 -8zM512 0h-340q-52 0 -86 36q-35 37 -35 87v1188q0 50 35 87q34 36 86 36h340q51 0 87 -36t36 -87v-1188q0 -51 -36 -87t-87 -36zM281 190h127q9 0 15.5 7t6.5 16v999
q0 23 -22 23h-127q-25 0 -25 -23v-999q0 -9 7 -16t18 -7zM256 1482h-102q-13 0 -7 10l95 129q8 12 16 12h180q8 0 17 -12l94 -129q6 -10 -6 -10h-107q-9 0 -22 8l-58 51q-10 7 -20 0l-57 -51q-14 -8 -23 -8z" />
    <glyph glyph-name="uni1ED2" unicode="&#x1ed2;" 
d="M649 1592h-115q-9 0 -20 8l-138 131q-4 4 -3 8t7 4h203q11 0 15 -12l57 -129q4 -10 -6 -10zM512 0h-340q-52 0 -86 36q-35 37 -35 87v1188q0 50 35 87q34 36 86 36h340q51 0 87 -36t36 -87v-1188q0 -51 -36 -87t-87 -36zM281 190h127q9 0 15.5 7t6.5 16v999q0 23 -22 23
h-127q-25 0 -25 -23v-999q0 -9 7 -16t18 -7zM256 1482h-102q-13 0 -7 10l95 129q8 12 16 12h180q8 0 17 -12l94 -129q6 -10 -6 -10h-107q-9 0 -22 8l-58 51q-10 7 -20 0l-57 -51q-14 -8 -23 -8z" />
    <glyph glyph-name="uni1ED3" unicode="&#x1ed3;" 
d="M649 1592h-115q-9 0 -20 8l-138 131q-4 4 -3 8t7 4h203q11 0 15 -12l57 -129q4 -10 -6 -10zM512 0h-340q-52 0 -86 36q-35 37 -35 87v1188q0 50 35 87q34 36 86 36h340q51 0 87 -36t36 -87v-1188q0 -51 -36 -87t-87 -36zM281 190h127q9 0 15.5 7t6.5 16v999q0 23 -22 23
h-127q-25 0 -25 -23v-999q0 -9 7 -16t18 -7zM256 1482h-102q-13 0 -7 10l95 129q8 12 16 12h180q8 0 17 -12l94 -129q6 -10 -6 -10h-107q-9 0 -22 8l-58 51q-10 7 -20 0l-57 -51q-14 -8 -23 -8z" />
    <glyph glyph-name="uni1ED4" unicode="&#x1ed4;" 
d="M604 1584h-97q-4 0 -6 10q0 9 -0.5 13.5t-0.5 12.5q0 24 15 37q6 6 24 17.5t21 13.5q4 5 4 13v19h-66q-50 72 -51 78q0 5 11 5h180q31 0 36.5 -5t5.5 -35v-73q0 -14 -6.5 -25t-11 -15.5t-22 -14.5t-22.5 -13l-4 -2q-4 -3 -4 -10v-16q0 -10 -6 -10zM512 0h-340
q-52 0 -86 36q-35 37 -35 87v1188q0 50 35 87q34 36 86 36h340q51 0 87 -36t36 -87v-1188q0 -51 -36 -87t-87 -36zM281 190h127q9 0 15.5 7t6.5 16v999q0 23 -22 23h-127q-25 0 -25 -23v-999q0 -9 7 -16t18 -7zM256 1482h-102q-13 0 -7 10l95 129q8 12 16 12h180q8 0 17 -12
l94 -129q6 -10 -6 -10h-107q-9 0 -22 8l-58 51q-10 7 -20 0l-57 -51q-14 -8 -23 -8z" />
    <glyph glyph-name="uni1ED5" unicode="&#x1ed5;" 
d="M604 1584h-97q-4 0 -6 10q0 9 -0.5 13.5t-0.5 12.5q0 24 15 37q6 6 24 17.5t21 13.5q4 5 4 13v19h-66q-50 72 -51 78q0 5 11 5h180q31 0 36.5 -5t5.5 -35v-73q0 -14 -6.5 -25t-11 -15.5t-22 -14.5t-22.5 -13l-4 -2q-4 -3 -4 -10v-16q0 -10 -6 -10zM512 0h-340
q-52 0 -86 36q-35 37 -35 87v1188q0 50 35 87q34 36 86 36h340q51 0 87 -36t36 -87v-1188q0 -51 -36 -87t-87 -36zM281 190h127q9 0 15.5 7t6.5 16v999q0 23 -22 23h-127q-25 0 -25 -23v-999q0 -9 7 -16t18 -7zM256 1482h-102q-13 0 -7 10l95 129q8 12 16 12h180q8 0 17 -12
l94 -129q6 -10 -6 -10h-107q-9 0 -22 8l-58 51q-10 7 -20 0l-57 -51q-14 -8 -23 -8z" />
    <glyph glyph-name="uni1ED6" unicode="&#x1ed6;" 
d="M330 1801l76 -39q20 -8 21 6l7 35q2 8 16 8h82q5 0 7.5 -2t1.5 -6l-20 -90q-14 -57 -87 -57q-36 0 -63 12l-75 39q-20 7 -21 -6l-7 -35q-2 -8 -16 -8h-82q-5 0 -7.5 2t-1.5 6l20 90q14 57 87 57q35 0 62 -12zM512 0h-340q-52 0 -86 36q-35 37 -35 87v1188q0 50 35 87
q34 36 86 36h340q51 0 87 -36t36 -87v-1188q0 -51 -36 -87t-87 -36zM281 190h127q9 0 15.5 7t6.5 16v999q0 23 -22 23h-127q-25 0 -25 -23v-999q0 -9 7 -16t18 -7zM256 1482h-102q-13 0 -7 10l95 129q8 12 16 12h180q8 0 17 -12l94 -129q6 -10 -6 -10h-107q-9 0 -22 8
l-58 51q-10 7 -20 0l-57 -51q-14 -8 -23 -8z" />
    <glyph glyph-name="uni1ED7" unicode="&#x1ed7;" 
d="M330 1801l76 -39q20 -8 21 6l7 35q2 8 16 8h82q5 0 7.5 -2t1.5 -6l-20 -90q-14 -57 -87 -57q-36 0 -63 12l-75 39q-20 7 -21 -6l-7 -35q-2 -8 -16 -8h-82q-5 0 -7.5 2t-1.5 6l20 90q14 57 87 57q35 0 62 -12zM512 0h-340q-52 0 -86 36q-35 37 -35 87v1188q0 50 35 87
q34 36 86 36h340q51 0 87 -36t36 -87v-1188q0 -51 -36 -87t-87 -36zM281 190h127q9 0 15.5 7t6.5 16v999q0 23 -22 23h-127q-25 0 -25 -23v-999q0 -9 7 -16t18 -7zM256 1482h-102q-13 0 -7 10l95 129q8 12 16 12h180q8 0 17 -12l94 -129q6 -10 -6 -10h-107q-9 0 -22 8
l-58 51q-10 7 -20 0l-57 -51q-14 -8 -23 -8z" />
    <glyph glyph-name="uni1ED8" unicode="&#x1ed8;" 
d="M440 -89v-117q0 -13 -13 -13h-166q-13 0 -13 13v117q0 13 13 13h166q13 0 13 -13zM512 0h-340q-52 0 -86 36q-35 37 -35 87v1188q0 50 35 87q34 36 86 36h340q51 0 87 -36t36 -87v-1188q0 -51 -36 -87t-87 -36zM281 190h127q9 0 15.5 7t6.5 16v999q0 23 -22 23h-127
q-25 0 -25 -23v-999q0 -9 7 -16t18 -7zM256 1482h-102q-13 0 -7 10l95 129q8 12 16 12h180q8 0 17 -12l94 -129q6 -10 -6 -10h-107q-9 0 -22 8l-58 51q-10 7 -20 0l-57 -51q-14 -8 -23 -8z" />
    <glyph glyph-name="uni1ED9" unicode="&#x1ed9;" 
d="M440 -89v-117q0 -13 -13 -13h-166q-13 0 -13 13v117q0 13 13 13h166q13 0 13 -13zM512 0h-340q-52 0 -86 36q-35 37 -35 87v1188q0 50 35 87q34 36 86 36h340q51 0 87 -36t36 -87v-1188q0 -51 -36 -87t-87 -36zM281 190h127q9 0 15.5 7t6.5 16v999q0 23 -22 23h-127
q-25 0 -25 -23v-999q0 -9 7 -16t18 -7zM256 1482h-102q-13 0 -7 10l95 129q8 12 16 12h180q8 0 17 -12l94 -129q6 -10 -6 -10h-107q-9 0 -22 8l-58 51q-10 7 -20 0l-57 -51q-14 -8 -23 -8z" />
    <glyph glyph-name="uni1EDA" unicode="&#x1eda;" horiz-adv-x="704" 
d="M548 1621l-137 -131q-11 -8 -21 -8h-115q-10 0 -6 10l58 129q5 12 14 12h203q6 0 7 -4t-3 -8zM512 0h-340q-52 0 -86 36q-35 37 -35 87v1188q0 50 35 87q34 36 86 36h340q33 0 60 -15l18 84q2 15 14 15h139q8 0 10.5 -5t-0.5 -10l-78 -157q-9 -10 -21 -10h-21
q2 -16 2 -25v-1188q0 -51 -36 -87t-87 -36zM281 190h127q9 0 15.5 7t6.5 16v999q0 23 -22 23h-127q-25 0 -25 -23v-999q0 -9 7 -16t18 -7z" />
    <glyph glyph-name="uni1EDB" unicode="&#x1edb;" horiz-adv-x="704" 
d="M548 1621l-137 -131q-11 -8 -21 -8h-115q-10 0 -6 10l58 129q5 12 14 12h203q6 0 7 -4t-3 -8zM512 0h-340q-52 0 -86 36q-35 37 -35 87v1188q0 50 35 87q34 36 86 36h340q33 0 60 -15l18 84q2 15 14 15h139q8 0 10.5 -5t-0.5 -10l-78 -157q-9 -10 -21 -10h-21
q2 -16 2 -25v-1188q0 -51 -36 -87t-87 -36zM281 190h127q9 0 15.5 7t6.5 16v999q0 23 -22 23h-127q-25 0 -25 -23v-999q0 -9 7 -16t18 -7z" />
    <glyph glyph-name="uni1EDC" unicode="&#x1edc;" horiz-adv-x="704" 
d="M431 1482h-115q-9 0 -20 8l-138 131q-4 4 -3 8t7 4h203q11 0 15 -12l57 -129q4 -10 -6 -10zM512 0h-340q-52 0 -86 36q-35 37 -35 87v1188q0 50 35 87q34 36 86 36h340q33 0 60 -15l18 84q2 15 14 15h139q8 0 10.5 -5t-0.5 -10l-78 -157q-9 -10 -21 -10h-21q2 -16 2 -25
v-1188q0 -51 -36 -87t-87 -36zM281 190h127q9 0 15.5 7t6.5 16v999q0 23 -22 23h-127q-25 0 -25 -23v-999q0 -9 7 -16t18 -7z" />
    <glyph glyph-name="uni1EDD" unicode="&#x1edd;" horiz-adv-x="704" 
d="M431 1482h-115q-9 0 -20 8l-138 131q-4 4 -3 8t7 4h203q11 0 15 -12l57 -129q4 -10 -6 -10zM512 0h-340q-52 0 -86 36q-35 37 -35 87v1188q0 50 35 87q34 36 86 36h340q33 0 60 -15l18 84q2 15 14 15h139q8 0 10.5 -5t-0.5 -10l-78 -157q-9 -10 -21 -10h-21q2 -16 2 -25
v-1188q0 -51 -36 -87t-87 -36zM281 190h127q9 0 15.5 7t6.5 16v999q0 23 -22 23h-127q-25 0 -25 -23v-999q0 -9 7 -16t18 -7z" />
    <glyph glyph-name="uni1EDE" unicode="&#x1ede;" horiz-adv-x="704" 
d="M395 1482h-97q-4 0 -6 10q0 9 -0.5 13.5t-0.5 12.5q0 24 15 37q6 6 24 17.5t21 13.5q4 5 4 13v19h-66q-50 72 -51 78q0 5 11 5h180q31 0 36.5 -5t5.5 -35v-73q0 -14 -6.5 -25t-11 -15.5t-22 -14.5t-22.5 -13l-4 -2q-4 -3 -4 -10v-16q0 -10 -6 -10zM512 0h-340
q-52 0 -86 36q-35 37 -35 87v1188q0 50 35 87q34 36 86 36h340q33 0 60 -15l18 84q2 15 14 15h139q8 0 10.5 -5t-0.5 -10l-78 -157q-9 -10 -21 -10h-21q2 -16 2 -25v-1188q0 -51 -36 -87t-87 -36zM281 190h127q9 0 15.5 7t6.5 16v999q0 23 -22 23h-127q-25 0 -25 -23v-999
q0 -9 7 -16t18 -7z" />
    <glyph glyph-name="uni1EDF" unicode="&#x1edf;" horiz-adv-x="704" 
d="M395 1482h-97q-4 0 -6 10q0 9 -0.5 13.5t-0.5 12.5q0 24 15 37q6 6 24 17.5t21 13.5q4 5 4 13v19h-66q-50 72 -51 78q0 5 11 5h180q31 0 36.5 -5t5.5 -35v-73q0 -14 -6.5 -25t-11 -15.5t-22 -14.5t-22.5 -13l-4 -2q-4 -3 -4 -10v-16q0 -10 -6 -10zM512 0h-340
q-52 0 -86 36q-35 37 -35 87v1188q0 50 35 87q34 36 86 36h340q33 0 60 -15l18 84q2 15 14 15h139q8 0 10.5 -5t-0.5 -10l-78 -157q-9 -10 -21 -10h-21q2 -16 2 -25v-1188q0 -51 -36 -87t-87 -36zM281 190h127q9 0 15.5 7t6.5 16v999q0 23 -22 23h-127q-25 0 -25 -23v-999
q0 -9 7 -16t18 -7z" />
    <glyph glyph-name="uni1EE0" unicode="&#x1ee0;" horiz-adv-x="704" 
d="M330 1639l76 -39q20 -8 21 6l7 35q2 8 16 8h82q5 0 7.5 -2t1.5 -6l-20 -90q-14 -57 -87 -57q-36 0 -63 12l-75 39q-20 7 -21 -6l-7 -35q-2 -8 -16 -8h-82q-5 0 -7.5 2t-1.5 6l20 90q14 57 87 57q35 0 62 -12zM512 0h-340q-52 0 -86 36q-35 37 -35 87v1188q0 50 35 87
q34 36 86 36h340q33 0 60 -15l18 84q2 15 14 15h139q8 0 10.5 -5t-0.5 -10l-78 -157q-9 -10 -21 -10h-21q2 -16 2 -25v-1188q0 -51 -36 -87t-87 -36zM281 190h127q9 0 15.5 7t6.5 16v999q0 23 -22 23h-127q-25 0 -25 -23v-999q0 -9 7 -16t18 -7z" />
    <glyph glyph-name="uni1EE1" unicode="&#x1ee1;" horiz-adv-x="704" 
d="M330 1639l76 -39q20 -8 21 6l7 35q2 8 16 8h82q5 0 7.5 -2t1.5 -6l-20 -90q-14 -57 -87 -57q-36 0 -63 12l-75 39q-20 7 -21 -6l-7 -35q-2 -8 -16 -8h-82q-5 0 -7.5 2t-1.5 6l20 90q14 57 87 57q35 0 62 -12zM512 0h-340q-52 0 -86 36q-35 37 -35 87v1188q0 50 35 87
q34 36 86 36h340q33 0 60 -15l18 84q2 15 14 15h139q8 0 10.5 -5t-0.5 -10l-78 -157q-9 -10 -21 -10h-21q2 -16 2 -25v-1188q0 -51 -36 -87t-87 -36zM281 190h127q9 0 15.5 7t6.5 16v999q0 23 -22 23h-127q-25 0 -25 -23v-999q0 -9 7 -16t18 -7z" />
    <glyph glyph-name="uni1EE2" unicode="&#x1ee2;" horiz-adv-x="704" 
d="M440 -89v-117q0 -13 -13 -13h-166q-13 0 -13 13v117q0 13 13 13h166q13 0 13 -13zM512 0h-340q-52 0 -86 36q-35 37 -35 87v1188q0 50 35 87q34 36 86 36h340q33 0 60 -15l18 84q2 15 14 15h139q8 0 10.5 -5t-0.5 -10l-78 -157q-9 -10 -21 -10h-21q2 -16 2 -25v-1188
q0 -51 -36 -87t-87 -36zM281 190h127q9 0 15.5 7t6.5 16v999q0 23 -22 23h-127q-25 0 -25 -23v-999q0 -9 7 -16t18 -7z" />
    <glyph glyph-name="uni1EE3" unicode="&#x1ee3;" horiz-adv-x="704" 
d="M440 -89v-117q0 -13 -13 -13h-166q-13 0 -13 13v117q0 13 13 13h166q13 0 13 -13zM512 0h-340q-52 0 -86 36q-35 37 -35 87v1188q0 50 35 87q34 36 86 36h340q33 0 60 -15l18 84q2 15 14 15h139q8 0 10.5 -5t-0.5 -10l-78 -157q-9 -10 -21 -10h-21q2 -16 2 -25v-1188
q0 -51 -36 -87t-87 -36zM281 190h127q9 0 15.5 7t6.5 16v999q0 23 -22 23h-127q-25 0 -25 -23v-999q0 -9 7 -16t18 -7z" />
    <glyph glyph-name="uni1EE4" unicode="&#x1ee4;" horiz-adv-x="666" 
d="M427 -89v-117q0 -13 -13 -13h-166q-13 0 -13 13v117q0 13 13 13h166q13 0 13 -13zM424 1434h178q12 0 12 -15v-1308q0 -49 -37 -80q-35 -31 -81 -31h-336q-46 0 -77 33q-32 34 -32 73v1313q0 15 12 15h179q14 0 14 -15v-1216q0 -13 12 -13h129q13 0 13 13v1216
q0 15 14 15z" />
    <glyph glyph-name="uni1EE5" unicode="&#x1ee5;" horiz-adv-x="666" 
d="M427 -89v-117q0 -13 -13 -13h-166q-13 0 -13 13v117q0 13 13 13h166q13 0 13 -13zM424 1434h178q12 0 12 -15v-1308q0 -49 -37 -80q-35 -31 -81 -31h-336q-46 0 -77 33q-32 34 -32 73v1313q0 15 12 15h179q14 0 14 -15v-1216q0 -13 12 -13h129q13 0 13 13v1216
q0 15 14 15z" />
    <glyph glyph-name="uni1EE6" unicode="&#x1ee6;" horiz-adv-x="666" 
d="M382 1482h-97q-4 0 -6 10q0 9 -0.5 13.5t-0.5 12.5q0 24 15 37q6 6 24 17.5t21 13.5q4 5 4 13v19h-66q-50 72 -51 78q0 5 11 5h180q31 0 36.5 -5t5.5 -35v-73q0 -14 -6.5 -25t-11 -15.5t-22 -14.5t-22.5 -13l-4 -2q-4 -3 -4 -10v-16q0 -10 -6 -10zM424 1434h178
q12 0 12 -15v-1308q0 -49 -37 -80q-35 -31 -81 -31h-336q-46 0 -77 33q-32 34 -32 73v1313q0 15 12 15h179q14 0 14 -15v-1216q0 -13 12 -13h129q13 0 13 13v1216q0 15 14 15z" />
    <glyph glyph-name="uni1EE7" unicode="&#x1ee7;" horiz-adv-x="666" 
d="M382 1482h-97q-4 0 -6 10q0 9 -0.5 13.5t-0.5 12.5q0 24 15 37q6 6 24 17.5t21 13.5q4 5 4 13v19h-66q-50 72 -51 78q0 5 11 5h180q31 0 36.5 -5t5.5 -35v-73q0 -14 -6.5 -25t-11 -15.5t-22 -14.5t-22.5 -13l-4 -2q-4 -3 -4 -10v-16q0 -10 -6 -10zM424 1434h178
q12 0 12 -15v-1308q0 -49 -37 -80q-35 -31 -81 -31h-336q-46 0 -77 33q-32 34 -32 73v1313q0 15 12 15h179q14 0 14 -15v-1216q0 -13 12 -13h129q13 0 13 13v1216q0 15 14 15z" />
    <glyph glyph-name="uni1EE8" unicode="&#x1ee8;" horiz-adv-x="704" 
d="M544 1621l-137 -131q-11 -8 -21 -8h-115q-10 0 -6 10l58 129q5 12 14 12h203q6 0 7 -4t-3 -8zM753 1503l-78 -157q-9 -10 -21 -10h-40v-1225q0 -49 -37 -80q-35 -31 -81 -31h-336q-46 0 -77 33q-32 34 -32 73v1313q0 15 12 15h179q14 0 14 -15v-1216q0 -13 12 -13h129
q13 0 13 13v1216q0 15 14 15h151l15 69q2 15 14 15h139q8 0 10.5 -5t-0.5 -10z" />
    <glyph glyph-name="uni1EE9" unicode="&#x1ee9;" horiz-adv-x="704" 
d="M544 1621l-137 -131q-11 -8 -21 -8h-115q-10 0 -6 10l58 129q5 12 14 12h203q6 0 7 -4t-3 -8zM753 1503l-78 -157q-9 -10 -21 -10h-40v-1225q0 -49 -37 -80q-35 -31 -81 -31h-336q-46 0 -77 33q-32 34 -32 73v1313q0 15 12 15h179q14 0 14 -15v-1216q0 -13 12 -13h129
q13 0 13 13v1216q0 15 14 15h151l15 69q2 15 14 15h139q8 0 10.5 -5t-0.5 -10z" />
    <glyph glyph-name="uni1EEA" unicode="&#x1eea;" horiz-adv-x="704" 
d="M410 1482h-115q-9 0 -20 8l-138 131q-4 4 -3 8t7 4h203q10 0 15 -12l57 -129q4 -10 -6 -10zM753 1503l-78 -157q-9 -10 -21 -10h-40v-1225q0 -49 -37 -80q-35 -31 -81 -31h-336q-46 0 -77 33q-32 34 -32 73v1313q0 15 12 15h179q14 0 14 -15v-1216q0 -13 12 -13h129
q13 0 13 13v1216q0 15 14 15h151l15 69q2 15 14 15h139q8 0 10.5 -5t-0.5 -10z" />
    <glyph glyph-name="uni1EEB" unicode="&#x1eeb;" horiz-adv-x="704" 
d="M410 1482h-115q-9 0 -20 8l-138 131q-4 4 -3 8t7 4h203q10 0 15 -12l57 -129q4 -10 -6 -10zM753 1503l-78 -157q-9 -10 -21 -10h-40v-1225q0 -49 -37 -80q-35 -31 -81 -31h-336q-46 0 -77 33q-32 34 -32 73v1313q0 15 12 15h179q14 0 14 -15v-1216q0 -13 12 -13h129
q13 0 13 13v1216q0 15 14 15h151l15 69q2 15 14 15h139q8 0 10.5 -5t-0.5 -10z" />
    <glyph glyph-name="uni1EEC" unicode="&#x1eec;" horiz-adv-x="704" 
d="M382 1482h-97q-4 0 -6 10q0 9 -0.5 13.5t-0.5 12.5q0 24 15 37q6 6 24 17.5t21 13.5q4 5 4 13v19h-66q-50 72 -51 78q0 5 11 5h180q31 0 36.5 -5t5.5 -35v-73q0 -14 -6.5 -25t-11 -15.5t-22 -14.5t-22.5 -13l-4 -2q-4 -3 -4 -10v-16q0 -10 -6 -10zM753 1503l-78 -157
q-9 -10 -21 -10h-40v-1225q0 -49 -37 -80q-35 -31 -81 -31h-336q-46 0 -77 33q-32 34 -32 73v1313q0 15 12 15h179q14 0 14 -15v-1216q0 -13 12 -13h129q13 0 13 13v1216q0 15 14 15h151l15 69q2 15 14 15h139q8 0 10.5 -5t-0.5 -10z" />
    <glyph glyph-name="uni1EED" unicode="&#x1eed;" horiz-adv-x="704" 
d="M382 1482h-97q-4 0 -6 10q0 9 -0.5 13.5t-0.5 12.5q0 24 15 37q6 6 24 17.5t21 13.5q4 5 4 13v19h-66q-50 72 -51 78q0 5 11 5h180q31 0 36.5 -5t5.5 -35v-73q0 -14 -6.5 -25t-11 -15.5t-22 -14.5t-22.5 -13l-4 -2q-4 -3 -4 -10v-16q0 -10 -6 -10zM753 1503l-78 -157
q-9 -10 -21 -10h-40v-1225q0 -49 -37 -80q-35 -31 -81 -31h-336q-46 0 -77 33q-32 34 -32 73v1313q0 15 12 15h179q14 0 14 -15v-1216q0 -13 12 -13h129q13 0 13 13v1216q0 15 14 15h151l15 69q2 15 14 15h139q8 0 10.5 -5t-0.5 -10z" />
    <glyph glyph-name="uni1EEE" unicode="&#x1eee;" horiz-adv-x="704" 
d="M317 1639l76 -39q19 -8 21 6l7 35q2 8 16 8h82q5 0 7.5 -2t1.5 -6l-20 -90q-14 -57 -87 -57q-36 0 -63 12l-75 39q-19 7 -21 -6l-7 -35q-2 -8 -16 -8h-82q-5 0 -7.5 2t-1.5 6l20 90q14 57 87 57q35 0 62 -12zM753 1503l-78 -157q-9 -10 -21 -10h-40v-1225q0 -49 -37 -80
q-35 -31 -81 -31h-336q-46 0 -77 33q-32 34 -32 73v1313q0 15 12 15h179q14 0 14 -15v-1216q0 -13 12 -13h129q13 0 13 13v1216q0 15 14 15h151l15 69q2 15 14 15h139q8 0 10.5 -5t-0.5 -10z" />
    <glyph glyph-name="uni1EEF" unicode="&#x1eef;" horiz-adv-x="704" 
d="M317 1639l76 -39q19 -8 21 6l7 35q2 8 16 8h82q5 0 7.5 -2t1.5 -6l-20 -90q-14 -57 -87 -57q-36 0 -63 12l-75 39q-19 7 -21 -6l-7 -35q-2 -8 -16 -8h-82q-5 0 -7.5 2t-1.5 6l20 90q14 57 87 57q35 0 62 -12zM753 1503l-78 -157q-9 -10 -21 -10h-40v-1225q0 -49 -37 -80
q-35 -31 -81 -31h-336q-46 0 -77 33q-32 34 -32 73v1313q0 15 12 15h179q14 0 14 -15v-1216q0 -13 12 -13h129q13 0 13 13v1216q0 15 14 15h151l15 69q2 15 14 15h139q8 0 10.5 -5t-0.5 -10z" />
    <glyph glyph-name="uni1EF0" unicode="&#x1ef0;" horiz-adv-x="704" 
d="M427 -89v-117q0 -13 -13 -13h-166q-13 0 -13 13v117q0 13 13 13h166q13 0 13 -13zM753 1503l-78 -157q-9 -10 -21 -10h-40v-1225q0 -49 -37 -80q-35 -31 -81 -31h-336q-46 0 -77 33q-32 34 -32 73v1313q0 15 12 15h179q14 0 14 -15v-1216q0 -13 12 -13h129q13 0 13 13
v1216q0 15 14 15h151l15 69q2 15 14 15h139q8 0 10.5 -5t-0.5 -10z" />
    <glyph glyph-name="uni1EF1" unicode="&#x1ef1;" horiz-adv-x="704" 
d="M427 -89v-117q0 -13 -13 -13h-166q-13 0 -13 13v117q0 13 13 13h166q13 0 13 -13zM753 1503l-78 -157q-9 -10 -21 -10h-40v-1225q0 -49 -37 -80q-35 -31 -81 -31h-336q-46 0 -77 33q-32 34 -32 73v1313q0 15 12 15h179q14 0 14 -15v-1216q0 -13 12 -13h129q13 0 13 13
v1216q0 15 14 15h151l15 69q2 15 14 15h139q8 0 10.5 -5t-0.5 -10z" />
    <glyph glyph-name="Ygrave" unicode="&#x1ef2;" horiz-adv-x="653" 
d="M408 1482h-115q-9 0 -20 8l-138 131q-4 4 -3 8t7 4h203q10 0 15 -12l57 -129q4 -10 -6 -10zM416 0h-178q-15 0 -15 14v598q0 22 -10 39l-147 287q-16 31 -20.5 54t-4.5 63v364q0 15 14 15h174q13 0 13 -15v-344q0 -33 4 -49q5 -19 18 -47l55 -111q9 -17 17 0l53 111
q13 28 18 47q5 20 5 49v344q0 15 12 15h174q14 0 14 -15v-364q0 -67 -24 -117l-150 -291q-10 -17 -10 -39v-594q0 -14 -12 -14z" />
    <glyph glyph-name="ygrave" unicode="&#x1ef3;" horiz-adv-x="653" 
d="M408 1482h-115q-9 0 -20 8l-138 131q-4 4 -3 8t7 4h203q10 0 15 -12l57 -129q4 -10 -6 -10zM416 0h-178q-15 0 -15 14v598q0 22 -10 39l-147 287q-16 31 -20.5 54t-4.5 63v364q0 15 14 15h174q13 0 13 -15v-344q0 -33 4 -49q5 -19 18 -47l55 -111q9 -17 17 0l53 111
q13 28 18 47q5 20 5 49v344q0 15 12 15h174q14 0 14 -15v-364q0 -67 -24 -117l-150 -291q-10 -17 -10 -39v-594q0 -14 -12 -14z" />
    <glyph glyph-name="uni1EF4" unicode="&#x1ef4;" horiz-adv-x="653" 
d="M421 -89v-117q0 -13 -13 -13h-166q-13 0 -13 13v117q0 13 13 13h166q13 0 13 -13zM416 0h-178q-15 0 -15 14v598q0 22 -10 39l-147 287q-16 31 -20.5 54t-4.5 63v364q0 15 14 15h174q13 0 13 -15v-344q0 -33 4 -49q5 -19 18 -47l55 -111q9 -17 17 0l53 111q13 28 18 47
q5 20 5 49v344q0 15 12 15h174q14 0 14 -15v-364q0 -67 -24 -117l-150 -291q-10 -17 -10 -39v-594q0 -14 -12 -14z" />
    <glyph glyph-name="uni1EF5" unicode="&#x1ef5;" horiz-adv-x="653" 
d="M421 -89v-117q0 -13 -13 -13h-166q-13 0 -13 13v117q0 13 13 13h166q13 0 13 -13zM416 0h-178q-15 0 -15 14v598q0 22 -10 39l-147 287q-16 31 -20.5 54t-4.5 63v364q0 15 14 15h174q13 0 13 -15v-344q0 -33 4 -49q5 -19 18 -47l55 -111q9 -17 17 0l53 111q13 28 18 47
q5 20 5 49v344q0 15 12 15h174q14 0 14 -15v-364q0 -67 -24 -117l-150 -291q-10 -17 -10 -39v-594q0 -14 -12 -14z" />
    <glyph glyph-name="uni1EF6" unicode="&#x1ef6;" horiz-adv-x="653" 
d="M379 1482h-97q-4 0 -6 10q0 9 -0.5 13.5t-0.5 12.5q0 24 15 37q6 6 24 17.5t21 13.5q4 5 4 13v19h-66q-50 72 -51 78q0 5 11 5h180q31 0 36.5 -5t5.5 -35v-73q0 -14 -6.5 -25t-11 -15.5t-22 -14.5t-22.5 -13l-4 -2q-4 -3 -4 -10v-16q0 -10 -6 -10zM416 0h-178
q-15 0 -15 14v598q0 22 -10 39l-147 287q-16 31 -20.5 54t-4.5 63v364q0 15 14 15h174q13 0 13 -15v-344q0 -33 4 -49q5 -19 18 -47l55 -111q9 -17 17 0l53 111q13 28 18 47q5 20 5 49v344q0 15 12 15h174q14 0 14 -15v-364q0 -67 -24 -117l-150 -291q-10 -17 -10 -39v-594
q0 -14 -12 -14z" />
    <glyph glyph-name="uni1EF7" unicode="&#x1ef7;" horiz-adv-x="653" 
d="M379 1482h-97q-4 0 -6 10q0 9 -0.5 13.5t-0.5 12.5q0 24 15 37q6 6 24 17.5t21 13.5q4 5 4 13v19h-66q-50 72 -51 78q0 5 11 5h180q31 0 36.5 -5t5.5 -35v-73q0 -14 -6.5 -25t-11 -15.5t-22 -14.5t-22.5 -13l-4 -2q-4 -3 -4 -10v-16q0 -10 -6 -10zM416 0h-178
q-15 0 -15 14v598q0 22 -10 39l-147 287q-16 31 -20.5 54t-4.5 63v364q0 15 14 15h174q13 0 13 -15v-344q0 -33 4 -49q5 -19 18 -47l55 -111q9 -17 17 0l53 111q13 28 18 47q5 20 5 49v344q0 15 12 15h174q14 0 14 -15v-364q0 -67 -24 -117l-150 -291q-10 -17 -10 -39v-594
q0 -14 -12 -14z" />
    <glyph glyph-name="uni1EF8" unicode="&#x1ef8;" horiz-adv-x="653" 
d="M307 1639l76 -39q19 -8 21 6l7 35q2 8 16 8h82q5 0 7.5 -2t1.5 -6l-20 -90q-14 -57 -87 -57q-36 0 -63 12l-75 39q-19 7 -21 -6l-7 -35q-2 -8 -16 -8h-82q-5 0 -7.5 2t-1.5 6l20 90q14 57 87 57q35 0 62 -12zM416 0h-178q-15 0 -15 14v598q0 22 -10 39l-147 287
q-16 31 -20.5 54t-4.5 63v364q0 15 14 15h174q13 0 13 -15v-344q0 -33 4 -49q5 -19 18 -47l55 -111q9 -17 17 0l53 111q13 28 18 47q5 20 5 49v344q0 15 12 15h174q14 0 14 -15v-364q0 -67 -24 -117l-150 -291q-10 -17 -10 -39v-594q0 -14 -12 -14z" />
    <glyph glyph-name="uni1EF9" unicode="&#x1ef9;" horiz-adv-x="653" 
d="M307 1639l76 -39q19 -8 21 6l7 35q2 8 16 8h82q5 0 7.5 -2t1.5 -6l-20 -90q-14 -57 -87 -57q-36 0 -63 12l-75 39q-19 7 -21 -6l-7 -35q-2 -8 -16 -8h-82q-5 0 -7.5 2t-1.5 6l20 90q14 57 87 57q35 0 62 -12zM416 0h-178q-15 0 -15 14v598q0 22 -10 39l-147 287
q-16 31 -20.5 54t-4.5 63v364q0 15 14 15h174q13 0 13 -15v-344q0 -33 4 -49q5 -19 18 -47l55 -111q9 -17 17 0l53 111q13 28 18 47q5 20 5 49v344q0 15 12 15h174q14 0 14 -15v-364q0 -67 -24 -117l-150 -291q-10 -17 -10 -39v-594q0 -14 -12 -14z" />
    <glyph glyph-name="uni1EFA" unicode="&#x1efa;" horiz-adv-x="0" 
 />
    <glyph glyph-name="endash" unicode="&#x2013;" horiz-adv-x="1108" 
 />
    <glyph glyph-name="emdash" unicode="&#x2014;" horiz-adv-x="2048" 
 />
    <glyph glyph-name="quoteleft" unicode="&#x2018;" horiz-adv-x="303" 
d="M186 1434h66q11 0 6 -11l-80 -180q-4 -10 6 -10h62q16 0 16 -16v-189q0 -16 -16 -16h-189q-16 0 -16 16v176q0 16 4 21l113 192q11 17 28 17z" />
    <glyph glyph-name="quoteright" unicode="&#x2019;" horiz-adv-x="303" 
d="M117 1012h-66q-10 0 -6 10l80 180q4 10 -6 10h-62q-16 0 -16 17v188q0 17 16 17h189q16 0 16 -17v-176q0 -15 -4 -20l-113 -193q-10 -16 -28 -16z" />
    <glyph glyph-name="quotesinglbase" unicode="&#x201a;" horiz-adv-x="303" 
d="M117 -201h-66q-11 0 -6 11l80 180q4 10 -6 10h-62q-16 0 -16 16v189q0 16 16 16h189q16 0 16 -16v-176q0 -16 -4 -21l-113 -192q-11 -17 -28 -17z" />
    <glyph glyph-name="quotedblleft" unicode="&#x201c;" horiz-adv-x="580" 
d="M463 1434h65q12 0 7 -11l-80 -180q-4 -10 6 -10h61q17 0 17 -16v-189q0 -16 -17 -16h-188q-17 0 -17 16v176q0 14 5 21l112 192q11 17 29 17zM186 1434h66q11 0 6 -11l-80 -180q-4 -10 6 -10h62q16 0 16 -16v-189q0 -16 -16 -16h-189q-16 0 -16 16v176q0 16 4 21l113 192
q11 17 28 17z" />
    <glyph glyph-name="quotedblright" unicode="&#x201d;" horiz-adv-x="580" 
d="M117 1012h-66q-10 0 -6 10l80 180q4 10 -6 10h-62q-16 0 -16 17v188q0 17 16 17h189q16 0 16 -17v-176q0 -15 -4 -20l-113 -193q-10 -16 -28 -16zM393 1012h-65q-10 0 -6 10l79 180q4 10 -6 10h-61q-17 0 -17 17v188q0 17 17 17h188q17 0 17 -17v-176q0 -15 -4 -20
l-113 -193q-10 -16 -29 -16z" />
    <glyph glyph-name="quotedblbase" unicode="&#x201e;" horiz-adv-x="580" 
d="M117 -201h-66q-11 0 -6 11l80 180q4 10 -6 10h-62q-16 0 -16 16v189q0 16 16 16h189q16 0 16 -16v-176q0 -16 -4 -21l-113 -192q-11 -17 -28 -17zM393 -201h-65q-11 0 -6 11l79 180q4 10 -6 10h-61q-17 0 -17 16v189q0 16 17 16h188q17 0 17 -16v-176q0 -16 -4 -21
l-113 -192q-11 -17 -29 -17z" />
    <glyph glyph-name="dagger" unicode="&#x2020;" horiz-adv-x="1014" 
 />
    <glyph glyph-name="daggerdbl" unicode="&#x2021;" horiz-adv-x="1014" 
 />
    <glyph glyph-name="bullet" unicode="&#x2022;" horiz-adv-x="1024" 
 />
    <glyph glyph-name="ellipsis" unicode="&#x2026;" horiz-adv-x="2048" 
 />
    <glyph glyph-name="guilsinglleft" unicode="&#x2039;" horiz-adv-x="631" 
 />
    <glyph glyph-name="guilsinglright" unicode="&#x203a;" horiz-adv-x="631" 
 />
    <glyph glyph-name="fraction" unicode="&#x2044;" horiz-adv-x="342" 
 />
    <glyph glyph-name="fraction" unicode="&#x2215;" horiz-adv-x="342" 
 />
    <glyph glyph-name="franc" unicode="&#x20a3;" horiz-adv-x="1014" 
 />
    <glyph glyph-name="lira" unicode="&#x20a4;" horiz-adv-x="1014" 
 />
    <glyph glyph-name="peseta" unicode="&#x20a7;" horiz-adv-x="2028" 
 />
    <glyph glyph-name="Euro" unicode="&#x20ac;" horiz-adv-x="1014" 
 />
    <glyph glyph-name="uni2116" unicode="&#x2116;" horiz-adv-x="2271" 
 />
    <glyph glyph-name="trademark" unicode="&#x2122;" horiz-adv-x="1497" 
 />
    <glyph glyph-name="partialdiff" unicode="&#x2202;" horiz-adv-x="1014" 
 />
    <glyph glyph-name="increment" unicode="&#x2206;" horiz-adv-x="1081" 
 />
    <glyph glyph-name="product" unicode="&#x220f;" horiz-adv-x="1515" 
 />
    <glyph glyph-name="summation" unicode="&#x2211;" horiz-adv-x="1206" 
 />
    <glyph glyph-name="minus" unicode="&#x2212;" horiz-adv-x="1014" 
 />
    <glyph glyph-name="radical" unicode="&#x221a;" horiz-adv-x="1014" 
 />
    <glyph glyph-name="infinity" unicode="&#x221e;" horiz-adv-x="1014" 
 />
    <glyph glyph-name="integral" unicode="&#x222b;" horiz-adv-x="665" 
 />
    <glyph glyph-name="approxequal" unicode="&#x2248;" horiz-adv-x="1014" 
 />
    <glyph glyph-name="lessequal" unicode="&#x2264;" horiz-adv-x="1014" 
 />
    <glyph glyph-name="greaterequal" unicode="&#x2265;" horiz-adv-x="1014" 
 />
    <glyph glyph-name="uniF001" unicode="&#xf001;" horiz-adv-x="1073" 
 />
    <glyph glyph-name="uniF001" unicode="&#xfb01;" horiz-adv-x="1073" 
 />
    <glyph glyph-name="uniF002" unicode="&#xf002;" horiz-adv-x="1081" 
 />
    <glyph glyph-name="uniF002" unicode="&#xfb02;" horiz-adv-x="1081" 
 />
    <glyph glyph-name="CR" horiz-adv-x="508" 
 />
    </font>
</defs>
</svg>
